Ссылка на приватное зеркало нашего сайта всего за 1$. Внимание количество ограничено!!!

2 сезон

iTunes

1 сезон

1

2 сезон

2 сезон

iTunes

1 сезон

RePack

30

Ultimate

ВАЖНО

ИГРА 18+

pack

RePack

MK11
pack

Забери бонус

RePack

jed

!!Акция!!

Alien_Rage

RePack

fifa19

RePack

Assassins Creed: Odyssey

RePack

NEED FOR SPEED™ PAYBACK

4 сезон

9 сезон

Бесстыжие 9 сезон

Все сериалы

все сериалы на PB.wtf

RePack

FAR CRY 5
  

Как приручить дракона 3 / How to Train Your Dragon: The Hidden World (Дин ДеБлуа) [2019, мультфильм, фэнтези, боевик, комедия, приключения, семейный, UHD BDRip 2160p] DUB [Лицензия] + MVO [HDRezka Studio] pb.wtf

Как приручить дракона 3 через торрент pb.wtf

Размер: 26.3 GB | Добавлен: 1 год 5 мес. назад | Торрент скачан:36 раз
Скачать  

18-04-2019 09:11 Как приручить дракона 3 Скачать торрент  

Как приручить дракона 3 / How to Train Your Dragon: The Hidden World«Братья навеки»

Год выпуска: 2019
Страна: США
Жанр: мультфильм, фэнтези, боевик, комедия, приключения, семейный
Продолжительность: 01:44:06
Перевод: Дублированный, профессиональный многоголосый
Субтитры: Русские Форсированные (одна надпись), (full), английский (SDH, SRT, PGS)
Режиссер: Дин ДеБлуа
В ролях:

Джей Барушель (Hiccup, озвучка), Кейт Бланшетт (Valka, озвучка), Крэйг Фергюсон (Gobber, озвучка), Америка Феррера (Astrid, озвучка), Джона Хилл (Snotlout, озвучка), Кит Харингтон (Eret, озвучка), Джастин Руппл (Tuffnut, озвучка), Кристофер Минц-Плассе (Fishlegs, озвучка), Ф. Мюррэй Абрахам (Grimmel, озвучка), Джерард Батлер (Stoick, озвучка), Кристен Уиг (Ruffnut, озвучка), Робин Аткин Даунс (Ack, озвучка)
Описание:
Когда-то викинги жили в гармонии с драконами. В те времена они делили радость, горе... и последние штаны. Казалось, что так будет всегда, но появление загадочной Дневной Фурии изменило жизнь острова. И теперь Иккинг и Беззубик столкнутся с безжалостным охотником на драконов, жаждущим уничтожить все, что им дорого.
Рейтинг:

MPAA: PG - Рекомендуется присутствие родителей
Качество: UHD BDRip 2160p
Формат: MKV
Видео: HEVC HDR, 31.3 Mбит/с, 3840x1634, 23.976 кадр/с, 10 Бит
Аудио: 48 kHz, AC3, 5.1, 640 Kbps | Дубляж - Лицензия | RUS |
Аудио: 48 kHz, AC3, 2.0, 192 Kbps | HDRezka Studio | RUS |
Аудио: 48 kHz, TrueHD/Atmos Audio, 7.1, 3312 Kbps | Оригинал | ENG |
Аудио: 48 kHz, AC3, 5.1, 640 Kbps | Оригинал | ENG |
Навигация по главам: есть

Общее
Уникальный идентификатор : 217264183067744902490406218417598666595 (0xA3738F4207E25F349F06146CCF589763)
Полное имя : D:\Мои раздачи\Передел\How.to.Train.Your.Dragon.3.2019.2160p.BDRip.x265.10bit.HDR.Master5.mkv
Формат : Matroska
Версия формата : Version 4 / Version 2
Размер файла : 26,3 Гбайт
Продолжительность : 1 ч. 44 м.
Режим общего битрейта : Переменный
Общий поток : 36,2 Мбит/сек
Название фильма : How.to.Train.Your.Dragon.3.2019.2160p.BDRip.x265.10bit.HDR.Master5
Дата кодирования : UTC 2019-06-11 05:17:51
Программа кодирования : mkvmerge v7.9.0 ('Birds') 64bit
Библиотека кодирования : libebml v1.3.1 + libmatroska v1.4.2
Обложка : Yes
Attachments : cover_land.jpg / small_cover.jpg / small_cover_land.jpg / cover.jpg / Cover - How.To.Train.Your.Dragon.3.png

Видео
Идентификатор : 1
Формат : HEVC
Формат/Информация : High Efficiency Video Coding
Коммерческое название : HDR10
Профиль формата : Main 10@L5.1@High
Идентификатор кодека : V_MPEGH/ISO/HEVC
Продолжительность : 1 ч. 44 м.
Битрейт : 31,3 Мбит/сек
Ширина : 3840 пикселей
Высота : 1634 пикселя
Соотношение сторон : 2,35:1
Режим частоты кадров : Постоянный
Частота кадров : 23,976 (24000/1001) кадра/сек
Цветовое пространство : YUV
Субдискретизация насыщенности : 4:2:0 (Type 2)
Битовая глубина : 10 бит
Бит/(Пиксели*Кадры) : 0.208
Размер потока : 22,8 Гбайт (87%)
Заголовок : How.to.Train.Your.Dragon.3.2019.2160p.BDRip.x265.10bit.HDR.Master5
Библиотека кодирования : x265 3.0+1-ed72af837053:[Linux][GCC 8.2.0][64 bit] 10bit
Настройки программы : cpuid=1176575 / frame-threads=5 / wpp / no-pmode / no-pme / no-psnr / no-ssim / log-level=2 / input-csp=1 / input-res=3840x1634 / interlace=0 / total-frames=0 / level-idc=51 / high-tier=1 / uhd-bd=0 / ref=4 / no-allow-non-conformance / repeat-headers / annexb / no-aud / no-hrd / info / hash=0 / no-temporal-layers / open-gop / min-keyint=23 / keyint=250 / gop-lookahead=0 / bframes=11 / b-adapt=2 / b-pyramid / bframe-bias=0 / rc-lookahead=25 / lookahead-slices=4 / scenecut=40 / radl=0 / no-splice / no-intra-refresh / ctu=64 / min-cu-size=8 / rect / no-amp / max-tu-size=32 / tu-inter-depth=1 / tu-intra-depth=1 / limit-tu=0 / rdoq-level=2 / dynamic-rd=0.00 / no-ssim-rd / signhide / no-tskip / nr-intra=0 / nr-inter=0 / no-constrained-intra / strong-intra-smoothing / max-merge=3 / limit-refs=3 / limit-modes / me=2 / subme=6 / merange=57 / temporal-mvp / weightp / no-weightb / no-analyze-src-pics / deblock=-3:-3 / no-sao / no-sao-non-deblock / rd=4 / no-early-skip / no-rskip / no-fast-intra / no-tskip-fast / no-cu-lossless / no-b-intra / no-splitrd-skip / rdpenalty=0 / psy-rd=4.00 / psy-rdoq=10.00 / no-rd-refine / no-lossless / cbqpoffs=0 / crqpoffs=0 / rc=crf / crf=17.0 / qcomp=0.60 / qpstep=1 / stats-write=0 / stats-read=0 / vbv-maxrate=160000 / vbv-bufsize=160000 / vbv-init=0.9 / crf-max=0.0 / crf-min=0.0 / ipratio=1.25 / pbratio=1.20 / aq-mode=3 / aq-strength=0.80 / no-cutree / zone-count=0 / no-strict-cbr / qg-size=32 / rc-grain / qpmax=69 / qpmin=0 / const-vbv / sar=1 / overscan=0 / videoformat=5 / range=0 / colorprim=9 / transfer=16 / colormatrix=9 / chromaloc=1 / chromaloc-top=2 / chromaloc-bottom=2 / display-window=0 / master-display=G(13250,34500)B(7500,3000)R(34000,16000)WP(15635,16450)L(10000000,50) / max-cll=845,196 / min-luma=0 / max-luma=1023 / log2-max-poc-lsb=8 / vui-timing-info / vui-hrd-info / slices=1 / no-opt-qp-pps / no-opt-ref-list-length-pps / no-multi-pass-opt-rps / scenecut-bias=0.05 / no-opt-cu-delta-qp / no-aq-motion / hdr / hdr-opt / no-dhdr10-opt / no-idr-recovery-sei / analysis-reuse-level=5 / scale-factor=0 / refine-intra=0 / refine-inter=0 / refine-mv=0 / refine-ctu-distortion=0 / no-limit-sao / ctu-info=0 / no-lowpass-dct / refine-analysis-type=0 / copy-pic=1 / max-ausize-factor=1.0 / no-dynamic-refine / no-single-sei / no-hevc-aq / qp-adaptation-range=1.00
Default : Да
Forced : Нет
Цветовой диапазон : Limited
Основные цвета : BT.2020
Характеристики трансфера : PQ
Коэффициенты матрицы : BT.2020 non-constant
MasteringDisplay_ColorPrimaries : Display P3
MasteringDisplay_Luminance : min: 0.0050 cd/m2, max: 1000 cd/m2
MaxCLL : 845 cd/m2
MaxFALL : 196 cd/m2

Аудио #1
Идентификатор : 2
Формат : AC-3
Формат/Информация : Audio Coding 3
Идентификатор кодека : A_AC3
Продолжительность : 1 ч. 44 м.
Вид битрейта : Постоянный
Битрейт : 640 Кбит/сек
Каналы : 6 каналов
Расположение каналов : Front: L C R, Side: L R, LFE
Частота : 48,0 КГц
Частота кадров : 31,250 кадров/сек (1536 SPF)
Битовая глубина : 16 бит
Метод сжатия : С потерями
Размер потока : 477 Мбайт (2%)
Заголовок : Dub License
Язык : Russian
ServiceKind/String : Complete Main
Default : Да
Forced : Да

Аудио #2
Идентификатор : 3
Формат : AC-3
Формат/Информация : Audio Coding 3
Идентификатор кодека : A_AC3
Продолжительность : 1 ч. 44 м.
Вид битрейта : Постоянный
Битрейт : 192 Кбит/сек
Каналы : 2 канала
Расположение каналов : Front: L R
Частота : 48,0 КГц
Частота кадров : 31,250 кадров/сек (1536 SPF)
Битовая глубина : 16 бит
Метод сжатия : С потерями
Размер потока : 143 Мбайт (1%)
Заголовок : HDRezka Studio
Язык : Russian
ServiceKind/String : Complete Main
Default : Нет
Forced : Нет

Аудио #3
Идентификатор : 4
Формат : TrueHD
Профиль формата : TrueHD+Atmos / TrueHD
Идентификатор кодека : A_TRUEHD
Продолжительность : 1 ч. 44 м.
Вид битрейта : Переменный
Битрейт : 3312 Кбит/сек
Максимальный битрейт : 5016 Кбит/сек
Каналы : Object Based / 8 каналов
Расположение каналов : Object Based / Front: L C R, Side: L R, Back: L R, LFE
Частота : / 48,0 КГц
Частота кадров : 1200,000 кадров/сек (40 SPF)
Метод сжатия : Без потерь
Размер потока : 2,41 Гбайт (9%)
Язык : English
Default : Нет
Forced : Нет

Аудио #4
Идентификатор : 5
Формат : AC-3
Формат/Информация : Audio Coding 3
Идентификатор кодека : A_AC3
Продолжительность : 1 ч. 44 м.
Вид битрейта : Постоянный
Битрейт : 640 Кбит/сек
Каналы : 6 каналов
Расположение каналов : Front: L C R, Side: L R, LFE
Частота : 48,0 КГц
Частота кадров : 31,250 кадров/сек (1536 SPF)
Битовая глубина : 16 бит
Метод сжатия : С потерями
Размер потока : 477 Мбайт (2%)
Язык : English
ServiceKind/String : Complete Main
Default : Нет
Forced : Нет

Текст #1
Идентификатор : 6
Формат : UTF-8
Идентификатор кодека : S_TEXT/UTF8
Идентификатор кодека/Информация : UTF-8 Plain Text
Продолжительность : 6 с. 255 мс.
Битрейт : 89 бит/сек
ElementCount : 1
Размер потока : 70,0 байт (0%)
Язык : Russian
Default : Да
Forced : Нет

Текст #2
Идентификатор : 7
Формат : UTF-8
Идентификатор кодека : S_TEXT/UTF8
Идентификатор кодека/Информация : UTF-8 Plain Text
Продолжительность : 1 ч. 32 м.
Битрейт : 73 бит/сек
ElementCount : 1054
Размер потока : 49,7 Кбайт (0%)
Заголовок : Full
Язык : Russian
Default : Нет
Forced : Нет

Текст #3
Идентификатор : 8
Формат : UTF-8
Идентификатор кодека : S_TEXT/UTF8
Идентификатор кодека/Информация : UTF-8 Plain Text
Продолжительность : 1 ч. 32 м.
Битрейт : 47 бит/сек
ElementCount : 1100
Размер потока : 32,2 Кбайт (0%)
Заголовок : English-SRT
Язык : English
Default : Нет
Forced : Нет

Текст #4
Идентификатор : 9
Формат : UTF-8
Идентификатор кодека : S_TEXT/UTF8
Идентификатор кодека/Информация : UTF-8 Plain Text
Продолжительность : 1 ч. 32 м.
Битрейт : 59 бит/сек
ElementCount : 1542
Размер потока : 40,2 Кбайт (0%)
Заголовок : English-SDH-SRT
Язык : English
Default : Нет
Forced : Нет

Текст #5
Идентификатор : 10
Формат : PGS
Режим смешивания : zlib
Идентификатор кодека : S_HDMV/PGS
Идентификатор кодека/Информация : Picture based subtitle format used on BDs/HD-DVDs
Продолжительность : 1 ч. 32 м.
Битрейт : 13,9 Кбит/сек
ElementCount : 3090
Размер потока : 9,24 Мбайт (0%)
Заголовок : English-PGS
Язык : English
Default : Нет
Forced : Нет

Меню
00:00:00.000 : :Chapter 1
00:05:13.521 : :Chapter 2
00:10:26.834 : :Chapter 3
00:14:52.224 : :Chapter 4
00:20:33.065 : :Chapter 5
00:24:38.685 : :Chapter 6
00:28:40.885 : :Chapter 7
00:31:10.118 : :Chapter 8
00:37:35.127 : :Chapter 9
00:44:38.550 : :Chapter 10
00:47:53.579 : :Chapter 11
00:53:11.021 : :Chapter 12
00:57:36.286 : :Chapter 13
01:01:25.056 : :Chapter 14
01:08:55.923 : :Chapter 15
01:14:17.703 : :Chapter 16
01:19:31.141 : :Chapter 17
01:23:23.289 : :Chapter 18
01:28:24.716 : :Chapter 19
01:33:53.377 : :Chapter 20
pb.wtf



Скачать Как приручить дракона 3 через торрент https://c.radikal.ru/c10/1904/49/46b91a9086a1.png Скачать фильм Как приручить дракона 3 через торрент бесплантно в хорошем качестве Описание: Когда-то викинги жили в гармонии с драконами. В те времена они делили радость, горе... и последние штаны. Казалось, что так будет ... 10 10 3
Торрент: Зарегистрирован [2019-06-11 08:08] · скачан: 36 раз
Статус: √ проверено
Размер: 26.3 GB
Как cкачать? Как скачать Как приручить дракона 3 через торрент | qTorrent

% Раздел Тема Автор DL S | L
Иностранные мультфильмы [ 744 MB ] Как приручить дракона 3 / How to Train Your Dragon: The Hidden World [2019 мультфильм HDRip] DUB [] bober100 Скачать
1 | 0
Мультфильмы (48-60 fps) [ 20.88 GB ] Как приручить дракона 3 / How to Train Your Dragon: The Hidden World [2019 мультфильм BDRip 1080p 60 fps] sheker187 Скачать
1 | 0
Ultra HD (UHD: 2K, 4K, 8K) [ 88.44 GB ] Как приручить дракона 3 / How to Train Your Dragon: The Hidden World [2019 мультфильм UHD Blu-Ray EUR 2160p] DUB [] bober100 Скачать
1 | 0
Иностранные мультфильмы [ 2.15 GB ] Как приручить дракона 3 / How to Train Your Dragon: The Hidden World [2019 мультфильм BDRip-AVC] DUB [] +MVO [HDRezka Studio] bober100 Скачать
4 | 0
Зарубежные Мультфильмы (BDRip 1080p, 720p, Blu-ray, BD-Remux) [ 8.29 GB ] Как приручить дракона 3 / How to Train Your Dragon: The Hidden World [2019 мультфильм BDRip 1080p] DUB [] +MVO [HDRezka Studio] bober100 Скачать
3 | 0
Зарубежные Мультфильмы (BDRip 1080p, 720p, Blu-ray, BD-Remux) [ 5.06 GB ] Как приручить дракона 3 / How to Train Your Dragon: The Hidden World [2019 мультфильм BDRip 720p] DUB [] +MVO [HDRezka Studio] bober100 Скачать
3 | 0
Иностранные мультфильмы [ 1.46 GB ] Как приручить дракона 3 / How to Train Your Dragon: The Hidden World [2019 мультфильм BDRip] DUB [ Blu-Ray 4K] bober100 Скачать
1 | 0

28-11-2019 20:33  

Отключить всю рекламу на сайте

    Дорогой пользователь! Огромная просьба, поблагодарите релизера, оцените раздачу и оставьте свои комментарий, если Вы скачали Как приручить дракона 3 через торрент бесплатно! Внесите свою лепту в развитие PiratBit!
    Комментировать посты могут только пользователи прошедшие не сложную регистрацию
    Показать сообщения:    

    Как приручить дракона 3 через торрент
    Скачать бесплатно Как приручить дракона 3
    Как приручить дракона 3 скачать торрент
    Как приручить дракона 3 смотреть онлайн
    Cкачать фильм Как приручить дракона 3 бесплатно
    Как приручить дракона 3 скачать торрент в хорошем качестве
    Как приручить дракона 3 смотреть онлайн бесплатно в хорошем качестве


    Вы не можете начинать темы
    Вы не можете отвечать на сообщения
    Вы не можете редактировать свои сообщения
    Вы не можете удалять свои сообщения
    Вы не можете голосовать в опросах
    Вы не можете прикреплять файлы к сообщениям
    Вы можете скачивать файлы