Ссылка на приватное зеркало всего за 1$. Внимание количество ограничено!!!

iTunes

1+1

iTunes

мы

WEB-DL

1

iTunes

Чернобыль

iTunes

Ральф против интернета

Лицензия

ПШазам

Лицензия

Оно 2

Лицензия

30
pack

Вам бонус

ВАЖНО

!!Акция!!

Alien_RageХит недели

RePack

Resident Evil 21

ИГРА 18+

pack

RePack

jed

!!Акция!!

Alien_Rage

RePack

fifa19

RePack

Assassins Creed: Odyssey

RePack

NEED FOR SPEED™ PAYBACK

3 сезон

9 сезон

Бесстыжие 9 сезон

Все сериалы

все сериалы на PB.wtf

RePack

FAR CRY 5
Ребята, катастрофически не хватает 1900р. для оплаты серверов за Октябрь (всвязи с блокировками трафик упал в 3 раза), 1-2р., выручайте.
  

Когда казаки плачут (Евгений Моргунов) [1963, СССР, короткометражка, комедия, SATRip-AVC от AVP Studio] pb.wtf

Когда казаки плачут через торрент pb.wtf

Размер: 372 MB | Добавлен: 7 мес. назад | Торрент скачан:14 раз
Скачать  

18-04-2019 09:12 Когда казаки плачут Скачать торрент  

Когда казаки плачут
Страна: СССР
Производство: Свердловская киностудия

Жанр: короткометражка, комедия
Год выпуска: 1963
Продолжительность: 00:25:58

Перевод: Не требуется
Cубтитры: нет
Оригинальная аудиодорожка: русский

Режиссер: Евгений Моргунов

В ролях:
Эмма Цесарская, Ирина Мурзаева, Зоя Василькова, Татьяна Забродина, А. Андреева, Александр Гречаный, Николай Горлов, Георгий Светлани, Владимир Емельянов, Инга Будкевич...
Об актёрах подробней

Описание:
По мотивам рассказа "О Колчаке, крапиве и прочем" Михаила Шолохова.
Дон. 1926 год. Бывшая хуторянка Настя возвращается в родные места. На родном хуторе она наблюдает знакомую картину: вольготна жизнь казаков, в то время как их жёны изнемогают от тяжёлой мужской работы. Однажды ночью после очередной казачьей гулянки, собрав детей и необходимую утварь, казачки неожиданно исчезают из хутора...
Единственная режиссерская работа известного актера кино Евгения Моргунова, снимавшаяся под патронажем Михаила Шолохова на его родине.

Исходник: DVB
Качество видео: SATRip-AVC
Формат видео: MKV

Видео: 696->768x576 (4:3), 25,000 кадров/сек, Y264 ~ 1811 kbps avg, 0.181 bit/pixel
Аудио: 48 kHz, Dolby Digital AC3 2.0, 192 kbps

Раздача от:
Общее
Полное имя : Kogda.kazaki.plachut.1963.SATRip-AVC_[New-team]_by_AVP_Studio.mkv
Формат : Matroska
Версия формата : Version 2
Размер файла : 372 Мбайт
Продолжительность : 25 м. 57 с.
Общий поток : 2005 Кбит/сек
Дата кодирования : UTC 2019-04-17 19:56:39
Программа кодирования : mkvmerge v6.1.0 ('Old Devil') built on Mar 4 2013 09:10:42
Библиотека кодирования : libebml v1.3.0 + libmatroska v1.4.0

Видео
Идентификатор : 1
Формат : AVC
Формат/Информация : Advanced Video Codec
Профиль формата : High@L4.1
Настройки формата : CABAC / 10 Ref Frames
Параметр CABAC формата : Да
Параметр RefFrames формата : 10 кадров
Идентификатор кодека : V_MPEG4/ISO/AVC
Продолжительность : 25 м. 57 с.
Битрейт : 1811 Кбит/сек
Ширина : 696 пикселей
Высота : 576 пикселей
Соотношение сторон : 4:3
Режим частоты кадров : Постоянный
Частота кадров : 25,000 кадров/сек
Цветовое пространство : YUV
Субдискретизация насыщенности : 4:2:0
Битовая глубина : 8 бит
Тип развёртки : Прогрессивная
Бит/(Пиксели*Кадры) : 0.181
Размер потока : 329 Мбайт (88%)
Библиотека кодирования : x264 core 157 r2935 545de2f
Настройки программы : cabac=1 / ref=10 / deblock=1:-2:-1 / analyse=0x3:0x113 / me=umh / subme=10 / psy=1 / psy_rd=1.00:0.00 / mixed_ref=1 / me_range=32 / chroma_me=1 / trellis=2 / 8x8dct=1 / cqm=0 / deadzone=21,11 / fast_pskip=1 / chroma_qp_offset=-2 / threads=6 / lookahead_threads=1 / sliced_threads=0 / nr=0 / decimate=0 / interlaced=0 / bluray_compat=0 / constrained_intra=0 / bframes=8 / b_pyramid=2 / b_adapt=2 / b_bias=0 / direct=3 / weightb=1 / open_gop=0 / weightp=2 / keyint=250 / keyint_min=25 / scenecut=40 / intra_refresh=0 / rc=2pass / mbtree=0 / bitrate=1811 / ratetol=1.0 / qcomp=0.60 / qpmin=0 / qpmax=69 / qpstep=4 / cplxblur=20.0 / qblur=0.5 / ip_ratio=1.40 / pb_ratio=1.30 / aq=1:1.00
Default : Да
Forced : Нет

Аудио
Идентификатор : 2
Формат : AC-3
Формат/Информация : Audio Coding 3
Коммерческое название : Dolby Digital
Идентификатор кодека : A_AC3
Продолжительность : 25 м. 57 с.
Вид битрейта : Постоянный
Битрейт : 192 Кбит/сек
Каналы : 2 канала
Channel layout : L R
Частота : 48,0 КГц
Частота кадров : 31,250 кадров/сек (1536 SPF)
Битовая глубина : 16 бит
Метод сжатия : С потерями
Размер потока : 35,7 Мбайт (10%)
Default : Да
Forced : Нет
pb.wtf



Скачать Когда казаки плачут через торрент http://picplus.ru/img/1904/18/ae2756f3.png Скачать фильм Когда казаки плачут через торрент бесплантно в хорошем качестве Описание:По мотивам рассказа "О Колчаке, крапиве и прочем" Михаила Шолохова.Дон. 1926 год. Бывшая хуторянка Настя возвращается в родные ... 5 10 1
Info! Золотая раздача, скачанное не засчитывается.
Торрент: Зарегистрирован [2019-04-18 09:12] · скачан: 14 раз
Статус: √ проверено
Размер: 372 MB
Как cкачать? Как скачать Когда казаки плачут через торрент | qTorrent

% Раздел Тема Автор DL S | L
Кино СССР [ 371 MB ] Когда казаки плачут [1963 СССР короткометражка SATRip от AVP Studio] AVP Studio Скачать
1 | 0

28-11-2019 20:33  

Отключить всю рекламу на сайте

    Дорогой пользователь! Огромная просьба, поблагодарите релизера, оцените раздачу и оставьте свои комментарий, если Вы скачали Когда казаки плачут через торрент бесплатно! Внесите свою лепту в развитие PiratBit!
    Комментировать посты могут только пользователи прошедшие не сложную регистрацию
    Показать сообщения:    

    Когда казаки плачут через торрент
    Скачать бесплатно Когда казаки плачут
    Когда казаки плачут скачать торрент
    Когда казаки плачут смотреть онлайн
    Cкачать фильм Когда казаки плачут бесплатно
    Когда казаки плачут скачать торрент в хорошем качестве
    Когда казаки плачут смотреть онлайн бесплатно в хорошем качестве


    Вы не можете начинать темы
    Вы не можете отвечать на сообщения
    Вы не можете редактировать свои сообщения
    Вы не можете удалять свои сообщения
    Вы не можете голосовать в опросах
    Вы не можете прикреплять файлы к сообщениям
    Вы можете скачивать файлы