Ссылка на приватное зеркало нашего сайта всего за 1$. Внимание количество ограничено!!!

2 сезон

iTunes

1 сезон

1

2 сезон

2 сезон

iTunes

1 сезон

RePack

30

Ultimate

ВАЖНО

ИГРА 18+

pack

RePack

MK11
pack

Забери бонус

RePack

jed

!!Акция!!

Alien_Rage

RePack

fifa19

RePack

Assassins Creed: Odyssey

RePack

NEED FOR SPEED™ PAYBACK

4 сезон

9 сезон

Бесстыжие 9 сезон

Все сериалы

все сериалы на PB.wtf

RePack

FAR CRY 5
  

Книга монстров / Book of Monsters (Стюарт Спарк) [2018, Ужасы, боевик, комедия, WEB-DL 1080p] MVO [HDRezka Studio] pb.wtf

Книга монстров через торрент pb.wtf

Размер: 2.89 GB | Добавлен: 1 год 7 мес. назад | Торрент скачан:93 раза
Скачать  

18-04-2019 11:32 Книга монстров Скачать торрент  

Книга монстров / Book of Monsters Год выпуска: 2018
Страна: Великобритания
Жанр: Ужасы, боевик, комедия
Продолжительность: 01:20:44
Перевод: Профессиональный (многоголосый) | HDRezka Studio
Субтитры: английские

Режиссер: Стюарт Спарк

rating

В ролях:

Линдси Крейн, Михаэла Лонгден, Лиззи Стэнтон, Анна Доусон, Роуз Мёрхэд, Стеф Моссман, Николас Винс, Дэниэл Трэйс, Аарон Дэннис, Юлиан Александр

Описание:

Совершеннолетие, которое Софи собиралась отметить вечеринкой, оказалось полным провалом: у порога двери её дома появляется пугающего вида книга, призвавшая из иного мира несколько ещё более пугающих и жадных до крови монстров. Начинается полный хаос, и теперь Софи вместе с друзьями вынуждена спасаться сама и спасать тех, кого ещё не разорвали на куски.

Качество: WEB-DL 1080p
Формат: MKV

Видео: MPEG-4 AVC, 4541 Кбит/с, 1908х948
Аудио#1: Русский: AC3, 2 ch, 192 Кбит/с - HDRezka Studio
Аудио#2: Английский: AC3, 6 ch, 384 Кбит/с - Original
скриншот  скриншот  скриншот  скриншот  

General
Unique ID : 277156890719603265400470342303764983732 (0xD08279BB388DFAF64747EDF2A5A02FB4)
Complete name : G:Book.of.Monsters.2018.WEB-DL.1080p.mkv
Format : Matroska
Format version : Version 4 / Version 2
File size : 2.89 GiB
Duration : 1 h 20 min
Overall bit rate : 5 120 kb/s
Encoded date : UTC 2019-04-18 02:18:00
Writing application : mkvmerge v20.0.0 ('I Am The Sun') 64-bit
Writing library : libebml v1.3.5 + libmatroska v1.4.8
Cover : Yes
Attachments : cover_land.jpg

Video
ID : 1
Format : AVC
Format/Info : Advanced Video Codec
Format profile : High@L4
Format settings : CABAC / 4 Ref Frames
Format settings, CABAC : Yes
Format settings, RefFrames : 4 frames
Codec ID : V_MPEG4/ISO/AVC
Duration : 1 h 20 min
Bit rate : 4 541 kb/s
Width : 1 908 pixels
Height : 948 pixels
Display aspect ratio : 2.013
Frame rate mode : Constant
Frame rate : 23.976 (24000/1001) FPS
Color space : YUV
Chroma subsampling : 4:2:0
Bit depth : 8 bits
Scan type : Progressive
Bits/(Pixel*Frame) : 0.105
Stream size : 2.56 GiB (89%)
Language : English
Default : Yes
Forced : No
Color range : Limited
Color primaries : BT.709
Transfer characteristics : BT.709
Matrix coefficients : BT.709

Audio #1
ID : 2
Format : AC-3
Format/Info : Audio Coding 3
Codec ID : A_AC3
Duration : 1 h 20 min
Bit rate mode : Constant
Bit rate : 192 kb/s
Channel(s) : 2 channels
Channel positions : Front: L R
Sampling rate : 48.0 kHz
Frame rate : 31.250 FPS (1536 SPF)
Bit depth : 16 bits
Compression mode : Lossy
Stream size : 111 MiB (4%)
Title : MVO HDRezka Studio
Language : Russian
Service kind : Complete Main
Default : Yes
Forced : No

Audio #2
ID : 3
Format : AC-3
Format/Info : Audio Coding 3
Codec ID : A_AC3
Duration : 1 h 20 min
Bit rate mode : Constant
Bit rate : 384 kb/s
Channel(s) : 6 channels
Channel positions : Front: L C R, Side: L R, LFE
Sampling rate : 48.0 kHz
Frame rate : 31.250 FPS (1536 SPF)
Bit depth : 16 bits
Compression mode : Lossy
Stream size : 222 MiB (8%)
Language : English
Service kind : Complete Main
Default : No
Forced : No

Text
ID : 4
Format : UTF-8
Codec ID : S_TEXT/UTF8
Codec ID/Info : UTF-8 Plain Text
Duration : 1 h 17 min
Bit rate : 33 b/s
Count of elements : 824
Stream size : 18.9 KiB (0%)
Language : English
Default : No
Forced : No

Menu
00:00:00.000 : en:1
00:04:27.000 : en:2
00:12:12.000 : en:3
00:22:05.000 : en:4
00:31:39.000 : en:5
00:40:44.000 : en:6
00:52:19.000 : en:7
01:04:02.000 : en:8
01:16:04.000 : en:9

pb.wtf



Скачать Книга монстров через торрент https://d.radikal.ru/d11/1904/88/7965ca8839cc.png Скачать фильм Книга монстров через торрент бесплантно в хорошем качестве Описание: Совершеннолетие, которое Софи собиралась отметить вечеринкой, оказалось полным провалом: у порога двери её дома появляется ... 10 10 4
Торрент: Зарегистрирован [2019-04-18 11:32] · скачан: 93 раз
Статус: T временная
Размер: 2.89 GB
Как cкачать? Как скачать Книга монстров через торрент | qTorrent

28-11-2019 20:33  

Отключить всю рекламу на сайте

18-04-2019 11:43 Книга монстров Скачать торрент  

кто этот трэшь вообще смотрит ?pb.wtf



18-04-2019 20:59 Книга монстров Скачать торрент  

PR1DEEE писал(а):

кто этот трэшь вообще смотрит ?

Британцы! pb.wtf



    Дорогой пользователь! Огромная просьба, поблагодарите релизера, оцените раздачу и оставьте свои комментарий, если Вы скачали Книга монстров через торрент бесплатно! Внесите свою лепту в развитие PiratBit!
    Комментировать посты могут только пользователи прошедшие не сложную регистрацию
    Показать сообщения:    

    Книга монстров через торрент
    Скачать бесплатно Книга монстров
    Книга монстров скачать торрент
    Книга монстров смотреть онлайн
    Cкачать фильм Книга монстров бесплатно
    Книга монстров скачать торрент в хорошем качестве
    Книга монстров смотреть онлайн бесплатно в хорошем качестве


    Вы не можете начинать темы
    Вы не можете отвечать на сообщения
    Вы не можете редактировать свои сообщения
    Вы не можете удалять свои сообщения
    Вы не можете голосовать в опросах
    Вы не можете прикреплять файлы к сообщениям
    Вы можете скачивать файлы