Ссылка на приватное зеркало нашего сайта всего за 1$. Внимание количество ограничено!!!

2 сезон

iTunes

1 сезон

1

2 сезон

2 сезон

iTunes

1 сезон

RePack

30

Ultimate

ВАЖНО

ИГРА 18+

pack

RePack

MK11
pack

Забери бонус

RePack

jed

!!Акция!!

Alien_Rage

RePack

fifa19

RePack

Assassins Creed: Odyssey

RePack

NEED FOR SPEED™ PAYBACK

4 сезон

9 сезон

Бесстыжие 9 сезон

Все сериалы

все сериалы на PB.wtf

RePack

FAR CRY 5
  

Мой друг мистер Персиваль / Штормовой мальчик / Storm Boy (Шон Сит) [2019, драма, приключения, семейный, BD Remux 1080p] DUB [iTunes] pb.wtf

Мой друг мистер Персиваль через торрент pb.wtf

Раздают: 1 [ 151 KB/s ]
Размер: 20.14 GB | Добавлен: 3 мес. 21 д. назад | Торрент скачан:25 раз
Скачать  

18-04-2019 15:51 Мой друг мистер Персиваль Скачать торрент  

Мой друг мистер Персиваль | Штормовой мальчик | Storm Boy
Год выпуска: 2019
Страна: Австралия
Студия: Ambience Entertainment, Best FX Adelaide
Жанр: драма, приключения, семейный
Продолжительность: 01:38:56
Перевод: Дублированный | iTunes
Субтитры: Английские

Режиссер: Шон Сит

rating

В ролях: Джай Кортни, Джеффри Раш, Дэвид Галпилил, Эрик Томсон, Финн Литтл, Шанталь Контури, Лука Аста Сарделис, Моргана Дейвис, Симона Аннан, Тревор Джемисон

Описание: Майкл Кингли, некогда успешный бизнесмен, а теперь пенсионер, рассказывает своей внучке историю о том, как в детстве он спас и вырастил необычайного пеликана, мистера Персиваля. Их удивительные приключения и особая связь оказали глубокое влияние на всю его жизнь.

Качество: BD Remux 1080p
Формат: MKV

Видео: MPEG-4 AVC, 1920x1080, 24.8 Mbit/s, 23.976 fps
Аудио #01: 48 kHz, AC3, 5.1, 384 Kbps | iTunes | RUS |
Аудио #02: 48 kHz, DTS-HD MA, 5.1, 3977 Kbps | Оригинал | ENG |
скриншот  скриншот  скриншот  скриншот  скриншот  

General
Unique ID : 239104088746980316719925342017448769940 (0xB3E1C5BE417CAB773F819029D922F994)
Complete name : E:Video111Storm.Boy.2019.BDREMUX.1080p.seleZen.mkv
Format : Matroska
Format version : Version 4
File size : 20.1 GiB
Duration : 1 h 38 min
Overall bit rate mode : Variable
Overall bit rate : 29.1 Mb/s
Movie name : Storm Boy 2019 from селезень
Encoded date : UTC 2020-08-05 19:18:32
Writing application : mkvmerge v40.0.0 ('Old Town Road + Pony') 64-bit
Writing library : libebml v1.3.9 + libmatroska v1.5.2

Video
ID : 1
Format : AVC
Format/Info : Advanced Video Codec
Format profile : High@L4.1
Format settings : CABAC / 4 Ref Frames
Format settings, CABAC : Yes
Format settings, Reference frames : 4 frames
Codec ID : V_MPEG4/ISO/AVC
Duration : 1 h 38 min
Bit rate mode : Variable
Bit rate : 24.8 Mb/s
Maximum bit rate : 32.0 Mb/s
Width : 1 920 pixels
Height : 1 080 pixels
Display aspect ratio : 16:9
Frame rate mode : Constant
Frame rate : 23.976 (24000/1001) FPS
Color space : YUV
Chroma subsampling : 4:2:0
Bit depth : 8 bits
Scan type : Progressive
Bits/(Pixel*Frame) : 0.498
Stream size : 17.1 GiB (85%)
Language : English
Default : Yes
Forced : No

Audio #1
ID : 2
Format : AC-3
Format/Info : Audio Coding 3
Commercial name : Dolby Digital
Codec ID : A_AC3
Duration : 1 h 38 min
Bit rate mode : Constant
Bit rate : 384 kb/s
Channel(s) : 6 channels
Channel layout : L R C LFE Ls Rs
Sampling rate : 48.0 kHz
Frame rate : 31.250 FPS (1536 SPF)
Compression mode : Lossy
Stream size : 272 MiB (1%)
Title : iTunes
Language : Russian
Service kind : Complete Main
Default : Yes
Forced : Yes

Audio #2
ID : 3
Format : DTS XLL
Format/Info : Digital Theater Systems
Commercial name : DTS-HD Master Audio
Codec ID : A_DTS
Duration : 1 h 38 min
Bit rate mode : Variable
Bit rate : 3 977 kb/s
Channel(s) : 6 channels
Channel layout : C L R Ls Rs LFE
Sampling rate : 48.0 kHz
Frame rate : 93.750 FPS (512 SPF)
Bit depth : 24 bits
Compression mode : Lossless
Stream size : 2.75 GiB (14%)
Title : Original
Language : English
Default : No
Forced : No

Text #1
ID : 4
Format : UTF-8
Codec ID : S_TEXT/UTF8
Codec ID/Info : UTF-8 Plain Text
Duration : 1 h 31 min
Bit rate : 33 b/s
Count of elements : 745
Stream size : 22.4 KiB (0%)
Title : Full
Language : English
Default : No
Forced : No

Text #2
ID : 5
Format : UTF-8
Codec ID : S_TEXT/UTF8
Codec ID/Info : UTF-8 Plain Text
Duration : 1 h 34 min
Bit rate : 36 b/s
Count of elements : 883
Stream size : 25.1 KiB (0%)
Title : SDH
Language : English
Default : No
Forced : No

Menu
00:00:00.000 : :Chapter 1
00:07:58.478 : :Chapter 2
00:12:19.739 : :Chapter 3
00:16:54.680 : :Chapter 4
00:23:11.056 : :Chapter 5
00:29:41.529 : :Chapter 6
00:36:33.608 : :Chapter 7
00:42:02.520 : :Chapter 8
00:47:52.661 : :Chapter 9
00:52:55.589 : :Chapter 10
00:56:13.578 : :Chapter 11
01:03:31.307 : :Chapter 12
01:13:46.046 : :Chapter 13
01:18:45.303 : :Chapter 14
01:23:46.604 : :Chapter 15
01:31:15.553 : :Chapter 16

pb.wtf



Скачать Мой друг мистер Персиваль через торрент https://a.radikal.ru/a09/2008/78/2cfb8463e785.jpg Скачать фильм Мой друг мистер Персиваль через торрент бесплантно в хорошем качестве Описание: Майкл Кингли, некогда успешный бизнесмен, а теперь пенсионер, рассказывает своей внучке историю о том, как в детстве он спас и ... 9.7 10 9
Торрент: Зарегистрирован [2020-08-06 03:48] · скачан: 25 раз
Статус: √ проверено
Размер: 20.14 GB
Как cкачать? Как скачать Мой друг мистер Персиваль через торрент | qTorrent

% Раздел Тема Автор DL S | L
Фильмы 2019-2020 [DVDrip, WEB-DLRip, HDrip] (DUB, MVO) [ 755 MB ] Мой друг мистер Персиваль / Штормовой мальчик / Storm Boy [2019 BDRip-AVC] от wolf1245 & MediaBit Lithuania Скачать
3 | 0
Фильмы [HD 720p, 1080p] (Хороший звук DUB, MVO) [ 10.15 GB ] Мой друг мистер Персиваль / Штормовой мальчик / Storm Boy [2019 BDRip 1080p] bober100 Скачать
3 | 0
Фильмы [HD 720p, 1080p] (Хороший звук DUB, MVO) [ 4.94 GB ] Мой друг мистер Персиваль / Штормовой мальчик / Storm Boy [2019 BDRip 720p] bober100 Скачать
6 | 0
Фильмы 2019-2020 [DVDrip, WEB-DLRip, HDrip] (DUB, MVO) [ 1.46 GB ] Мой друг мистер Персиваль / Штормовой мальчик / Storm Boy [2019 BDRip] bober100 Скачать
8 | 0

28-11-2019 20:33  

Отключить всю рекламу на сайте

    Дорогой пользователь! Огромная просьба, поблагодарите релизера, оцените раздачу и оставьте свои комментарий, если Вы скачали Мой друг мистер Персиваль через торрент бесплатно! Внесите свою лепту в развитие PiratBit!
    Комментировать посты могут только пользователи прошедшие не сложную регистрацию
    Показать сообщения:    

    Мой друг мистер Персиваль через торрент
    Скачать бесплатно Мой друг мистер Персиваль
    Мой друг мистер Персиваль скачать торрент
    Мой друг мистер Персиваль смотреть онлайн
    Cкачать фильм Мой друг мистер Персиваль бесплатно
    Мой друг мистер Персиваль скачать торрент в хорошем качестве
    Мой друг мистер Персиваль смотреть онлайн бесплатно в хорошем качестве


    Вы не можете начинать темы
    Вы не можете отвечать на сообщения
    Вы не можете редактировать свои сообщения
    Вы не можете удалять свои сообщения
    Вы не можете голосовать в опросах
    Вы не можете прикреплять файлы к сообщениям
    Вы можете скачивать файлы