Ссылка на приватное зеркало всего за 1$. Внимание количество ограничено!!!

OK

1+1

iTunes

мы

OK

1

WEB-DLRip

Джокер

Пифагор

Ведьмак / The Witcher сериал

iTunes

ПШазам

ОК

Оно 2

iTunes

30
pack

Вам бонус

ВАЖНО

!!Акция!!

Alien_RageХит недели

RePack

Resident Evil 21

ИГРА 18+

pack

RePack

jed

RePack

fifa19

RePack

Assassins Creed: Odyssey

RePack

NEED FOR SPEED™ PAYBACK

4 сезон

9 сезон

Бесстыжие 9 сезон

Все сериалы

все сериалы на PB.wtf

RePack

FAR CRY 5
  

Проклятый дом / Ведьма в окне / The Witch in the Window (Энди Миттон) [2018, Драма, ужасы, WEB-DL 720p] DUB [Line] pb.wtf

Проклятый дом через торрент pb.wtf

Размер: 3.04 GB | Добавлен: 9 мес. назад | Торрент скачан:30 раз
Скачать  

18-04-2019 16:09 Проклятый дом Скачать торрент  

Проклятый дом / Ведьма в окне / The Witch in the Window Год выпуска: 2018
Страна: США
Жанр: Драма, ужасы
Продолжительность: 01:17:15
Перевод: Дублированный | Line
Субтитры: отсутствуют

Режиссер: Энди Миттон

rating

В ролях:

Алекс Дрэйпер, Чарльз Эверетт Такер, Кэрол Станционе, Грег Нафтон, Ария Барейкис

Описание:

Отец с 12-летним сыном приезжают в сельский штат Вермонт, чтобы восстановить старый дом. Там они сталкиваются со злым духом прежней владелицы дома, и чем дальше продвигается ремонт, тем сильнее становится злобный призрак.

Качество: WEB-DL 720p
Формат: MKV

Видео: h.264,5 244 Кбит/с, 1280x640
Аудио#1: Русский, (AC3, 2 ch, 384 Кбит/с)
скриншот  скриншот  скриншот  

Общее
Уникальный идентификатор : 205597031954602896643097324263589043049 (0x9AAC8C4BD0BCD42C889124F4796C5B69)
Полное имя : D:\TheWitchintheWindow.2O19.D.WEB-DL.72Op.mkv
Формат : Matroska
Версия формата : Version 2
Размер файла : 3,04 Гбайт
Продолжительность : 1 ч. 17 м.
Режим общего битрейта : Переменный
Общий поток : 5630 Кбит/сек
Дата кодирования : UTC 2019-04-18 02:46:36
Программа кодирования : mkvmerge v8.3.0 ('Over the Horizon') 64bit
Библиотека кодирования : libebml v1.3.1 + libmatroska v1.4.2

Видео
Идентификатор : 1
Формат : AVC
Формат/Информация : Advanced Video Codec
Профиль формата : High@L4.1
Параметр CABAC формата : Да
Параметр RefFrames формата : 4 кадра
Идентификатор кодека : V_MPEG4/ISO/AVC
Продолжительность : 1 ч. 17 м.
Вид битрейта : Переменный
Битрейт : 5244 Кбит/сек
Максимальный битрейт : 6000 Кбит/сек
Ширина : 1280 пикселей
Высота : 640 пикселей
Соотношение сторон : 2,000
Режим частоты кадров : Постоянный
Частота кадров : 23,976 (24000/1001) кадра/сек
Стандарт вещания : Component
Цветовое пространство : YUV
Субдискретизация насыщенности : 4:2:0
Битовая глубина : 8 бит
Тип развёртки : Прогрессивная
Бит/(Пиксели*Кадры) : 0.261
Размер потока : 2,77 Гбайт (91%)
Default : Да
Forced : Нет
Цветовой диапазон : Limited
Основные цвета : BT.709
Характеристики трансфера : BT.709
Коэффициенты матрицы : BT.709

Аудио
Идентификатор : 2
Формат : AC-3
Формат/Информация : Audio Coding 3
Расширение режима : CM (complete main)
Параметр Endianness формата : Big
Идентификатор кодека : A_AC3
Продолжительность : 1 ч. 17 м.
Вид битрейта : Постоянный
Битрейт : 384 Кбит/сек
Каналы : 2 канала
Расположение каналов : Front: L R
Частота : 48,0 КГц
Частота кадров : 31,250 кадров/сек (1536 spf)
Метод сжатия : С потерями
Размер потока : 212 Мбайт (7%)
Default : Да
Forced : Нет

pb.wtf



Скачать Проклятый дом через торрент https://i106.fastpic.ru/big/2019/0125/27/4edd9c1f6c2b538a2ca15b29f57a7627.jpg Скачать фильм Проклятый дом через торрент бесплантно в хорошем качестве Описание: Отец с 12-летним сыном приезжают в сельский штат Вермонт, чтобы восстановить старый дом. Там они сталкиваются со злым духом ... 10 10 2
Торрент: Зарегистрирован [2019-04-18 16:09] · скачан: 30 раз
Статус: T временная
Размер: 3.04 GB
Как cкачать? Как скачать Проклятый дом через торрент | qTorrent

% Раздел Тема Автор DL S | L
Фильмы (WEB-DL 720p, 1080p) [ 2.28 GB ] Проклятый дом / Ведьма в окне / The Witch in the Window [2018 WEB-DL 1080p] bober100 Скачать
14 | 0
T Фильмы (WEB-DL 720p, 1080p) [ 2.2 GB ] Проклятый дом / Ведьма в окне / The Witch in the Window [2018 WEB-DL 1080p] MVO [HDRezka Studio] bober100 Скачать
2 | 0
Фильмы 2018 [DVDrip, WEB-DLRip, HDrip] (DUB, MVO) [ 1.37 GB ] Проклятый дом / Ведьма в окне / The Witch in the Window [2018 WEB-DLRip] bober100 Скачать
13 | 0

28-11-2019 20:33  

Отключить всю рекламу на сайте

    Дорогой пользователь! Огромная просьба, поблагодарите релизера, оцените раздачу и оставьте свои комментарий, если Вы скачали Проклятый дом через торрент бесплатно! Внесите свою лепту в развитие PiratBit!
    Комментировать посты могут только пользователи прошедшие не сложную регистрацию
    Показать сообщения:    

    Проклятый дом через торрент
    Скачать бесплатно Проклятый дом
    Проклятый дом скачать торрент
    Проклятый дом смотреть онлайн
    Cкачать фильм Проклятый дом бесплатно
    Проклятый дом скачать торрент в хорошем качестве
    Проклятый дом смотреть онлайн бесплатно в хорошем качестве


    Вы не можете начинать темы
    Вы не можете отвечать на сообщения
    Вы не можете редактировать свои сообщения
    Вы не можете удалять свои сообщения
    Вы не можете голосовать в опросах
    Вы не можете прикреплять файлы к сообщениям
    Вы можете скачивать файлы