Ссылка на приватное зеркало всего за 1$. Внимание количество ограничено!!!

OK

1+1

iTunes

мы

OK

1

WEB-DLRip

Джокер

Пифагор

Ведьмак / The Witcher сериал

iTunes

ПШазам

ОК

Оно 2

iTunes

30
pack

Вам бонус

ВАЖНО

!!Акция!!

Alien_RageХит недели

RePack

Resident Evil 21

ИГРА 18+

pack

RePack

jed

RePack

fifa19

RePack

Assassins Creed: Odyssey

RePack

NEED FOR SPEED™ PAYBACK

4 сезон

9 сезон

Бесстыжие 9 сезон

Все сериалы

все сериалы на PB.wtf

RePack

FAR CRY 5
  

Проклятый дом / Ведьма в окне / The Witch in the Window (Энди Миттон) [2018, Драма, ужасы, WEB-DL 1080p] DUB [iTunes] pb.wtf

Проклятый дом через торрент pb.wtf

Раздают: 11 [ 43 KB/s ] Качают: 1 [ 0 KB/s ]
Размер: 2.28 GB | Добавлен: 11 д. назад | Торрент скачан:124 раза
Скачать  

18-04-2019 16:09 Проклятый дом Скачать торрент  

Проклятый дом | Ведьма в окне | The Witch in the Window Год выпуска: 2018
Страна: США
Жанр: Драма, ужасы
Продолжительность: 01:16:30
Перевод: Дублированный | iTunes
Субтитры: Английские (SDH)

Режиссер: Энди Миттон

rating

В ролях: Алекс Дрэйпер, Чарльз Эверетт Такер, Кэрол Станционе, Грег Нафтон, Ария Барейкис, Зак Йетте, Молли Слотауэр, Фрэнки Данливи, Аделаида Фиттон, Наоми Фиттон

Описание: Фильм рассказывает историю человека по имени Саймон и его двенадцатилетнего сына Финна. Вместе они отправляются в штат Вермонт, где планируют отремонтировать старый дом, в котором вот уже многие годы никто не живет. Во время работ им приходится столкнуться с духом умершей женщины Лидии, когда-то владевшей этим местом. Сосед Саймона говорил ему, что при жизни Лидию считали ведьмой, взрослые ее недолюбливали, а дети боялись. Эта страшная встреча с призраком заставляет Саймона усомниться в том, что он сможет защитить своего ребенка от ужасающего зла, которое с каждым часом их прибывания в этом месте становится все могущественнее.

Качество: WEB-DL 1080p
Формат: MKV

Видео: MPEG-4 AVC, 1920x1080, 3657 Kbps, 23.976 fps
Аудио 1 Russian: AC3, 6 ch, 384 kbps, 48.0 KHz - DUB, iTunes
Аудио 2 English: EAC3, 2 ch, 224 kbps, 48.0 KHz - Оригинал
скриншот  скриншот  скриншот  скриншот  скриншот  

General
Unique ID : 174789731312727022358057747113884461914 (0x837F471AAAC8A912BFFCE694A07B2B5A)
Complete name : The.Witch.in.the.Window.2018.AMZN.WEB-DL.1080p.mkv
Format : Matroska
Format version : Version 4 / Version 2
File size : 2.28 GiB
Duration : 1 h 16 min
Overall bit rate : 4 267 kb/s
Encoded date : UTC 2020-01-17 20:02:24
Writing application : mkvmerge v8.3.0 ('Over the Horizon') 64bit
Writing library : libebml v1.3.1 + libmatroska v1.4.2

Video
ID : 1
Format : AVC
Format/Info : Advanced Video Codec
Format profile : High@L4
Format settings, CABAC : Yes
Format settings, RefFrames : 4 frames
Codec ID : V_MPEG4/ISO/AVC
Duration : 1 h 16 min
Bit rate : 3 657 kb/s
Width : 1 920 pixels
Height : 1 080 pixels
Display aspect ratio : 16:9
Frame rate mode : Constant
Frame rate : 23.976 (24000/1001) FPS
Color space : YUV
Chroma subsampling : 4:2:0
Bit depth : 8 bits
Scan type : Progressive
Bits/(Pixel*Frame) : 0.074
Stream size : 1.95 GiB (86%)
Default : Yes
Forced : No
Color range : Limited
Color primaries : BT.709
Transfer characteristics : BT.709
Matrix coefficients : BT.709

Audio #1
ID : 2
Format : AC-3
Format/Info : Audio Coding 3
Format settings, Endianness : Big
Codec ID : A_AC3
Duration : 1 h 16 min
Bit rate mode : Constant
Bit rate : 384 kb/s
Channel(s) : 6 channels
Channel positions : Front: L C R, Side: L R, LFE
Sampling rate : 48.0 kHz
Frame rate : 31.250 FPS (1536 SPF)
Bit depth : 16 bits
Compression mode : Lossy
Stream size : 210 MiB (9%)
Title : iTunes
Language : Russian
Service kind : Complete Main
Default : Yes
Forced : No

Audio #2
ID : 3
Format : E-AC-3
Format/Info : Enhanced Audio Coding 3
Format settings, Endianness : Big
Codec ID : A_EAC3
Duration : 1 h 16 min
Bit rate mode : Constant
Bit rate : 224 kb/s
Channel(s) : 2 channels
Channel positions : Front: L R
Sampling rate : 48.0 kHz
Frame rate : 187.500 FPS (256 SPF)
Compression mode : Lossy
Delay relative to video : 21 ms
Stream size : 123 MiB (5%)
Language : English
Service kind : Complete Main
Default : No
Forced : No

Text
ID : 4
Format : UTF-8
Codec ID : S_TEXT/UTF8
Codec ID/Info : UTF-8 Plain Text
Duration : 1 h 14 min
Bit rate : 47 b/s
Count of elements : 936
Stream size : 25.8 KiB (0%)
Title : SDH
Language : English
Default : No
Forced : No

pb.wtf



Скачать Проклятый дом через торрент https://c.radikal.ru/c30/1904/88/debf3315d92f.png Скачать фильм Проклятый дом через торрент бесплантно в хорошем качестве Описание: Фильм рассказывает историю человека по имени Саймон и его двенадцатилетнего сына Финна. Вместе они отправляются в штат Вермонт, ... 10 10 10
Торрент: Зарегистрирован [2020-01-18 07:03] · скачан: 124 раз
Статус: √ проверено
Размер: 2.28 GB
Как cкачать? Как скачать Проклятый дом через торрент | qTorrent

% Раздел Тема Автор DL S | L
T Фильмы (WEB-DL 720p, 1080p) [ 2.2 GB ] Проклятый дом / Ведьма в окне / The Witch in the Window [2018 WEB-DL 1080p] MVO [HDRezka Studio] bober100 Скачать
1 | 0
T Фильмы (мультфильмы) cо спонсором показа (Новинки AVI/MKV) [ 3.04 GB ] Проклятый дом / Ведьма в окне / The Witch in the Window [2018 WEB-DL 720p] DUB [Line] bober100 Скачать
1 | 0
Фильмы 2018 [DVDrip, WEB-DLRip, HDrip] (DUB, MVO) [ 1.37 GB ] Проклятый дом / Ведьма в окне / The Witch in the Window [2018 WEB-DLRip] bober100 Скачать
13 | 0


Последний раз редактировалось: bober100 (2020-01-18 07:03), всего редактировалось 1 раз

28-11-2019 20:33  

Отключить всю рекламу на сайте


18-01-2020 12:58 Проклятый дом Скачать торрент  

Старый?pb.wtf



    Дорогой пользователь! Огромная просьба, поблагодарите релизера, оцените раздачу и оставьте свои комментарий, если Вы скачали Проклятый дом через торрент бесплатно! Внесите свою лепту в развитие PiratBit!
    Комментировать посты могут только пользователи прошедшие не сложную регистрацию
    Показать сообщения:    

    Проклятый дом через торрент
    Скачать бесплатно Проклятый дом
    Проклятый дом скачать торрент
    Проклятый дом смотреть онлайн
    Cкачать фильм Проклятый дом бесплатно
    Проклятый дом скачать торрент в хорошем качестве
    Проклятый дом смотреть онлайн бесплатно в хорошем качестве


    Вы не можете начинать темы
    Вы не можете отвечать на сообщения
    Вы не можете редактировать свои сообщения
    Вы не можете удалять свои сообщения
    Вы не можете голосовать в опросах
    Вы не можете прикреплять файлы к сообщениям
    Вы можете скачивать файлы