Ссылка на приватное зеркало всего за 1$. Внимание количество ограничено!!!

OK

1+1

iTunes

мы

OK

1

WEB-DLRip

Джокер

Пифагор

Ведьмак / The Witcher сериал

Лицензия

ПШазам

ОК

Оно 2

iTunes

30
pack

Вам бонус

ВАЖНО

!!Акция!!

Alien_RageХит недели

RePack

Resident Evil 21

ИГРА 18+

pack

RePack

jed

!!Акция!!

Alien_Rage

RePack

fifa19

RePack

Assassins Creed: Odyssey

RePack

NEED FOR SPEED™ PAYBACK

4 сезон

9 сезон

Бесстыжие 9 сезон

Все сериалы

все сериалы на PB.wtf

RePack

FAR CRY 5
  

Побег от своих корней / Runnin' from my Roots (Нэнси Крисс) [2018, драма, BDRip 720p] MVO ["Синема УС"] pb.wtf

Побег от своих корней через торрент pb.wtf

Размер: 4.63 GB | Добавлен: 9 мес. назад | Торрент скачан:4 раза
Скачать  

18-04-2019 17:31 Побег от своих корней Скачать торрент  

Побег от своих корней / Runnin' from my RootsГод выпуска: 2018
Страна: США
Жанр: драма
Продолжительность: 01:39:40
Перевод: Любительский (многоголосый) | "Синема УС"
Субтитры: отсутствуют

Режиссер: Нэнси Крисс

rating

В ролях: Джанин Тернер, Патрик Малдун, Аарон О'Коннелл, Ли-Эллин Бейкер, Ниа Фрейзер, Даллас Ловато, Дианна Картер, Джоэль Раш, Жуль Хартли, Винсент Де Пол

Описание: После публичного скандала, звезда кантри-музыки Фэйт Уинтерс ищет убежище в своем маленьком родном городке в штате Техас, где она заново влюбляется в бывшего парня, местного пастора.

Качество: BDRip 720p
Формат: MKV

Видео: h.264,6 701 Кбит/с, 1280x674
Аудио#1: Русский (AC3, 2 ch, 448 Кбит/с)
скриншот  скриншот  скриншот  

Общее
Уникальный идентификатор : 245091835469768188137416355568242295151 (0xB862F8730E2CB9AABC04E707CB5A816F)
Полное имя : D:\Runnin.from.My.Roots.2018.P.BDRip.72Op.mkv
Формат : Matroska
Версия формата : Version 2
Размер файла : 4,63 Гбайт
Продолжительность : 1 ч. 32 м.
Режим общего битрейта : Переменный
Общий поток : 7151 Кбит/сек
Дата кодирования : UTC 2019-04-18 02:49:29
Программа кодирования : mkvmerge v8.3.0 ('Over the Horizon') 64bit
Библиотека кодирования : libebml v1.3.1 + libmatroska v1.4.2

Видео
Идентификатор : 1
Формат : AVC
Формат/Информация : Advanced Video Codec
Профиль формата : High@L4.1
Параметр CABAC формата : Да
Параметр RefFrames формата : 4 кадра
Идентификатор кодека : V_MPEG4/ISO/AVC
Продолжительность : 1 ч. 32 м.
Вид битрейта : Переменный
Битрейт : 6701 Кбит/сек
Максимальный битрейт : 7500 Кбит/сек
Ширина : 1280 пикселей
Высота : 676 пикселей
Соотношение сторон : 1,893
Режим частоты кадров : Постоянный
Частота кадров : 23,976 (24000/1001) кадра/сек
Стандарт вещания : Component
Цветовое пространство : YUV
Субдискретизация насыщенности : 4:2:0
Битовая глубина : 8 бит
Тип развёртки : Прогрессивная
Бит/(Пиксели*Кадры) : 0.316
Размер потока : 4,25 Гбайт (92%)
Default : Да
Forced : Нет
Цветовой диапазон : Limited
Основные цвета : BT.709
Характеристики трансфера : BT.709
Коэффициенты матрицы : BT.709

Аудио
Идентификатор : 2
Формат : AC-3
Формат/Информация : Audio Coding 3
Расширение режима : CM (complete main)
Параметр Endianness формата : Big
Идентификатор кодека : A_AC3
Продолжительность : 1 ч. 32 м.
Вид битрейта : Постоянный
Битрейт : 448 Кбит/сек
Каналы : 2 канала
Расположение каналов : Front: L R
Частота : 48,0 КГц
Частота кадров : 31,250 кадров/сек (1536 spf)
Метод сжатия : С потерями
Размер потока : 297 Мбайт (6%)
Default : Да
Forced : Нет

pb.wtf



Скачать Побег от своих корней через торрент https://c.radikal.ru/c00/1904/8f/1158ead2e389.jpg Скачать фильм Побег от своих корней через торрент бесплантно в хорошем качестве Описание: После публичного скандала, звезда кантри-музыки Фэйт Уинтерс ищет убежище в своем маленьком родном городке в штате Техас, где она ... 10 10 2
Торрент: Зарегистрирован [2019-04-18 17:31] · скачан: 4 раз
Статус: # сомнительно
Размер: 4.63 GB
Как cкачать? Как скачать Побег от своих корней через торрент | qTorrent

28-11-2019 20:33  

Отключить всю рекламу на сайте

    Дорогой пользователь! Огромная просьба, поблагодарите релизера, оцените раздачу и оставьте свои комментарий, если Вы скачали Побег от своих корней через торрент бесплатно! Внесите свою лепту в развитие PiratBit!
    Комментировать посты могут только пользователи прошедшие не сложную регистрацию
    Показать сообщения:    

    Побег от своих корней через торрент
    Скачать бесплатно Побег от своих корней
    Побег от своих корней скачать торрент
    Побег от своих корней смотреть онлайн
    Cкачать фильм Побег от своих корней бесплатно
    Побег от своих корней скачать торрент в хорошем качестве
    Побег от своих корней смотреть онлайн бесплатно в хорошем качестве


    Вы не можете начинать темы
    Вы не можете отвечать на сообщения
    Вы не можете редактировать свои сообщения
    Вы не можете удалять свои сообщения
    Вы не можете голосовать в опросах
    Вы не можете прикреплять файлы к сообщениям
    Вы можете скачивать файлы