Ссылка на приватное зеркало всего за 1$. Внимание количество ограничено!!!

OK

1+1

iTunes

мы

OK

1

WEB-DLRip

Джокер

Пифагор

Ведьмак / The Witcher сериал

iTunes

ПШазам

ОК

Оно 2

iTunes

30
pack

Вам бонус

ВАЖНО

!!Акция!!

Alien_RageХит недели

RePack

Resident Evil 21

ИГРА 18+

pack

RePack

jed

RePack

fifa19

RePack

Assassins Creed: Odyssey

RePack

NEED FOR SPEED™ PAYBACK

4 сезон

9 сезон

Бесстыжие 9 сезон

Все сериалы

все сериалы на PB.wtf

RePack

FAR CRY 5
  

Расхитители гробницы свирепого дракона / Ferocious Monster Dragon (Дай Илинь) [2019, Детектив, фэнтези, WEBRip 720p] MVO [КОЛОБОК] pb.wtf

Расхитители гробницы свирепого дракона через торрент pb.wtf

Размер: 3.62 GB | Добавлен: 9 мес. назад | Торрент скачан:93 раза
Скачать  

18-04-2019 17:48 Расхитители гробницы свирепого дракона Скачать торрент  

Расхитители гробницы свирепого дракона / Ferocious Monster Dragon Год выпуска: 2019
Страна: Китай
Жанр: Детектив, фэнтези
Продолжительность: 01:28:23
Перевод: Любительский (многоголосый) | КОЛОБОК
Субтитры: отсутствуют

Режиссер: Дай Илинь

rating

В ролях:

Пэн Юйсы, Хэ Цивэй, Дай Аньна, Чжоу Цзе, Чэнь Цзинъюань, Чжан Дэхуэй, Лю Ижу, Чжан Мэн

Описание:

Разобравшись с японскими оккупантами внутри гробницы речного демона города Баота, группа расхитителей гробниц отправляется в новое приключение, чтобы столкнуться с новым куда более грозным и могущественным противником. И не все из них переживут этот судьбоносный поединок, преодолев множество сложнейших ловушек оставленных древними на пути к сокровищу.

Качество: WEBRip 720p
Формат: MKV

Видео: h.264,5 468 Кбит/с, 1280x544
Аудио: Русский, (AC3, 2 ch, 384 Кбит/с)
скриншот  скриншот  скриншот  

Общее
Уникальный идентификатор : 188691666823189090816757657098244213977 (0x8DF4B17190995C98A84F3FB9E2664CD9)
Полное имя : D:\Ferocious.monster.dragon.2019.Pk.WEBRip.72Op.mkv
Формат : Matroska
Версия формата : Version 2
Размер файла : 3,62 Гбайт
Продолжительность : 1 ч. 28 м.
Режим общего битрейта : Переменный
Общий поток : 5854 Кбит/сек
Дата кодирования : UTC 2019-04-17 00:54:15
Программа кодирования : mkvmerge v8.3.0 ('Over the Horizon') 64bit
Библиотека кодирования : libebml v1.3.1 + libmatroska v1.4.2

Видео
Идентификатор : 1
Формат : AVC
Формат/Информация : Advanced Video Codec
Профиль формата : High@L4.1
Параметр CABAC формата : Да
Параметр RefFrames формата : 4 кадра
Идентификатор кодека : V_MPEG4/ISO/AVC
Продолжительность : 1 ч. 28 м.
Вид битрейта : Переменный
Битрейт : 5468 Кбит/сек
Максимальный битрейт : 6000 Кбит/сек
Ширина : 1280 пикселей
Высота : 544 пикселя
Соотношение сторон : 2,35:1
Режим частоты кадров : Постоянный
Частота кадров : 23,976 (24000/1001) кадра/сек
Стандарт вещания : Component
Цветовое пространство : YUV
Субдискретизация насыщенности : 4:2:0
Битовая глубина : 8 бит
Тип развёртки : Прогрессивная
Бит/(Пиксели*Кадры) : 0.321
Размер потока : 3,31 Гбайт (91%)
Default : Да
Forced : Нет
Цветовой диапазон : Limited
Основные цвета : BT.709
Характеристики трансфера : BT.709
Коэффициенты матрицы : BT.709

Аудио
Идентификатор : 2
Формат : AC-3
Формат/Информация : Audio Coding 3
Расширение режима : CM (complete main)
Параметр Endianness формата : Big
Идентификатор кодека : A_AC3
Продолжительность : 1 ч. 28 м.
Вид битрейта : Постоянный
Битрейт : 384 Кбит/сек
Каналы : 2 канала
Расположение каналов : Front: L R
Частота : 48,0 КГц
Частота кадров : 31,250 кадров/сек (1536 spf)
Метод сжатия : С потерями
Размер потока : 243 Мбайт (7%)
Default : Да
Forced : Нет

pb.wtf



Скачать Расхитители гробницы свирепого дракона через торрент https://a.radikal.ru/a00/1904/95/71cf3d3a7b85.jpg Скачать фильм Расхитители гробницы свирепого дракона через торрент бесплантно в хорошем качестве Описание: Разобравшись с японскими оккупантами внутри гробницы речного демона города Баота, группа расхитителей гробниц отправляется в ... 10 10 4
Торрент: Зарегистрирован [2019-04-18 17:48] · скачан: 93 раз
Статус: T временная
Размер: 3.62 GB
Как cкачать? Как скачать Расхитители гробницы свирепого дракона через торрент | qTorrent

% Раздел Тема Автор DL S | L
T Фильмы (мультфильмы) cо спонсором показа (Новинки AVI/MKV) [ 1.37 GB ] Расхитители гробницы свирепого дракона / Ferocious Monster Dragon [2019 WEBRip] MVO [КОЛОБОК] bober100 Скачать
1 | 0

28-11-2019 20:33  

Отключить всю рекламу на сайте

    Дорогой пользователь! Огромная просьба, поблагодарите релизера, оцените раздачу и оставьте свои комментарий, если Вы скачали Расхитители гробницы свирепого дракона через торрент бесплатно! Внесите свою лепту в развитие PiratBit!
    Комментировать посты могут только пользователи прошедшие не сложную регистрацию
    Показать сообщения:    

    Расхитители гробницы свирепого дракона через торрент
    Скачать бесплатно Расхитители гробницы свирепого дракона
    Расхитители гробницы свирепого дракона скачать торрент
    Расхитители гробницы свирепого дракона смотреть онлайн
    Cкачать фильм Расхитители гробницы свирепого дракона бесплатно
    Расхитители гробницы свирепого дракона скачать торрент в хорошем качестве
    Расхитители гробницы свирепого дракона смотреть онлайн бесплатно в хорошем качестве


    Вы не можете начинать темы
    Вы не можете отвечать на сообщения
    Вы не можете редактировать свои сообщения
    Вы не можете удалять свои сообщения
    Вы не можете голосовать в опросах
    Вы не можете прикреплять файлы к сообщениям
    Вы можете скачивать файлы