Ссылка на приватное зеркало всего за 1$. Внимание количество ограничено!!!

iTunes

iTunes

iTunes

1

iTunes

iTunes

iTunes

WEBRip

iTunes

30
pack

$ от Little Big

ВАЖНО

!!Акция!!

Alien_RageХит недели

RePack

Resident Evil 21

ИГРА 18+

pack

RePack

jed

!!Акция!!

Alien_Rage

RePack

fifa19

RePack

Assassins Creed: Odyssey

RePack

NEED FOR SPEED™ PAYBACK

4 сезон

9 сезон

Бесстыжие 9 сезон

Все сериалы

все сериалы на PB.wtf

RePack

FAR CRY 5
  

Ешь, пей и умри: Детективная загадка для гурманов / Eat, Drink & Be Buried: A Gourmet Detective Mystery (Марк Жан) [2017, Драма, криминал, детектив, HDTVRip 720p] MVO ["Синема УС"] pb.wtf

Ешь, пей и умри: Детективная загадка для гурманов через торрент pb.wtf

Размер: 2.89 GB | Добавлен: 1 год 3 мес. назад | Торрент скачан:17 раз
Скачать  

18-04-2019 18:23 Ешь, пей и умри: Детективная загадка для гурманов Скачать торрент  

Ешь, пей и умри: Детективная загадка для гурманов / Eat, Drink & Be Buried: A Gourmet Detective Mystery Год выпуска: 2017
Страна: Канада
Жанр: Драма, криминал, детектив
Продолжительность: 01:25:14
Перевод: Любительский (многоголосый) | "Синема УС"
Субтитры: отсутствуют

Режиссер: Марк Жан

rating

В ролях: Дилан Нил, Брук Бернс, Брюс Бокслайтнер, Мэтт Андерсон, Марк Сеньор, Саманта Феррис, Кристин Уиллз, Алиса Сковбай, Шеннон Чан-Кент, Бренда Кричлоу

Описание: Богатая семья с легендарным прошлым и большим поместьем нанимает Генри для контроля меню на ежегодном летнем празднестве. Когда один из сыновей хозяина умирает, Мэгги и Генри снова начинают расследование, оказавшись посреди вражды наследников по поводу семейного состояния.

Качество: HDTVRip 720p
Формат: MKV

Видео: h.264,4 475 Кбит/с, 1280x720
Аудио#1: Русский, (AC3, 2 ch, 384 Кбит/с)
скриншот  скриншот  скриншот  

Общее
Уникальный идентификатор : 254145634224865027142478872965327417440 (0xBF32AB3129599164B9E434D69438F060)
Полное имя : D:\Eat.drink.and.be.buried.a.gourmet.detective.mystery.2017.P.HDTV.72Op.mkv
Формат : Matroska
Версия формата : Version 2
Размер файла : 2,89 Гбайт
Продолжительность : 1 ч. 25 м.
Режим общего битрейта : Переменный
Общий поток : 4861 Кбит/сек
Дата кодирования : UTC 2019-04-16 01:42:42
Программа кодирования : mkvmerge v8.3.0 ('Over the Horizon') 64bit
Библиотека кодирования : libebml v1.3.1 + libmatroska v1.4.2

Видео
Идентификатор : 1
Формат : AVC
Формат/Информация : Advanced Video Codec
Профиль формата : High@L4.1
Параметр CABAC формата : Да
Параметр RefFrames формата : 4 кадра
Идентификатор кодека : V_MPEG4/ISO/AVC
Продолжительность : 1 ч. 25 м.
Вид битрейта : Переменный
Битрейт : 4465 Кбит/сек
Максимальный битрейт : 5000 Кбит/сек
Ширина : 1280 пикселей
Высота : 720 пикселей
Соотношение сторон : 16:9
Режим частоты кадров : Постоянный
Частота кадров : 23,976 (24000/1001) кадра/сек
Стандарт вещания : Component
Цветовое пространство : YUV
Субдискретизация насыщенности : 4:2:0
Битовая глубина : 8 бит
Тип развёртки : Прогрессивная
Бит/(Пиксели*Кадры) : 0.198
Размер потока : 2,61 Гбайт (90%)
Default : Да
Forced : Нет
Цветовой диапазон : Limited
Основные цвета : BT.709
Характеристики трансфера : BT.709
Коэффициенты матрицы : BT.709

Аудио
Идентификатор : 2
Формат : AC-3
Формат/Информация : Audio Coding 3
Расширение режима : CM (complete main)
Параметр Endianness формата : Big
Идентификатор кодека : A_AC3
Продолжительность : 1 ч. 25 м.
Вид битрейта : Постоянный
Битрейт : 384 Кбит/сек
Каналы : 2 канала
Расположение каналов : Front: L R
Частота : 48,0 КГц
Частота кадров : 31,250 кадров/сек (1536 spf)
Метод сжатия : С потерями
Размер потока : 234 Мбайт (8%)
Default : Да
Forced : Нет

pb.wtf



Скачать Ешь, пей и умри: Детективная загадка для гурманов через торрент https://a.radikal.ru/a39/1904/70/fc826473bb52.jpg Скачать фильм Ешь, пей и умри: Детективная загадка для гурманов через торрент бесплантно в хорошем качестве Описание: Богатая семья с легендарным прошлым и большим поместьем нанимает Генри для контроля меню на ежегодном летнем празднестве. Когда ... 10 10 2
Торрент: Зарегистрирован [2019-04-18 18:23] · скачан: 17 раз
Статус: T временная
Размер: 2.89 GB
Как cкачать? Как скачать Ешь, пей и умри: Детективная загадка для гурманов через торрент | qTorrent

28-11-2019 20:33  

Отключить всю рекламу на сайте

    Дорогой пользователь! Огромная просьба, поблагодарите релизера, оцените раздачу и оставьте свои комментарий, если Вы скачали Ешь, пей и умри: Детективная загадка для гурманов через торрент бесплатно! Внесите свою лепту в развитие PiratBit!
    Комментировать посты могут только пользователи прошедшие не сложную регистрацию
    Показать сообщения:    

    Ешь, пей и умри: Детективная загадка для гурманов через торрент
    Скачать бесплатно Ешь, пей и умри: Детективная загадка для гурманов
    Ешь, пей и умри: Детективная загадка для гурманов скачать торрент
    Ешь, пей и умри: Детективная загадка для гурманов смотреть онлайн
    Cкачать фильм Ешь, пей и умри: Детективная загадка для гурманов бесплатно
    Ешь, пей и умри: Детективная загадка для гурманов скачать торрент в хорошем качестве
    Ешь, пей и умри: Детективная загадка для гурманов смотреть онлайн бесплатно в хорошем качестве


    Вы не можете начинать темы
    Вы не можете отвечать на сообщения
    Вы не можете редактировать свои сообщения
    Вы не можете удалять свои сообщения
    Вы не можете голосовать в опросах
    Вы не можете прикреплять файлы к сообщениям
    Вы можете скачивать файлы