новый адрес
Ссылка на приватное зеркало всего за 1$. Внимание количество ограничено!!!

iTunes

1+1

iTunes

мы

iTunes

1

iTunes

Чернобыль

iTunes

Ральф против интернета

Лицензия

ПШазам

Лицензия

Оно 2

Лицензия

30
pack

Вам бонус

ВАЖНО

!!Акция!!

Alien_RageХит недели

RePack

Resident Evil 21

ИГРА 18+

pack

RePack

jed

!!Акция!!

Alien_Rage

RePack

fifa19

RePack

Assassins Creed: Odyssey

RePack

NEED FOR SPEED™ PAYBACK

3 сезон

9 сезон

Бесстыжие 9 сезон

Все сериалы

все сериалы на PB.wtf

RePack

FAR CRY 5
Ребята, катастрофически не хватает 1900р. для оплаты серверов за Октябрь (всвязи с блокировками трафик упал в 3 раза), 1-2р., выручайте.
  

Лепрекон возвращается / Leprechaun Returns (Стивен Костански) [2018, ужасы, фэнтези, комедия, WEB-DLRip] MVO [HDRezka Studio] pb.wtf

Лепрекон возвращается через торрент pb.wtf

Раздают: 2 [ 0 KB/s ]
Размер: 744 MB | Добавлен: 7 мес. назад | Торрент скачан:100 раз
Скачать  

18-04-2019 18:42 Лепрекон возвращается Скачать торрент  

Лепрекон возвращается / Leprechaun Returns Год выпуска: 2018
Страна: США
Жанр: ужасы, фэнтези, комедия
Продолжительность: 01:33:25
Перевод: Любительский (многоголосый) | HDRezka Studio
Субтитры: отсутствуют

Режиссер: Стивен Костански

rating

В ролях:

Тейлор Спрейтлер, Пепи Сонуга, Сай Беннетт, Линден Порко, Марк Холтон, Бен Макгрегор, Леон Клайнгман, Эмили Рейд, Хизер Макдональд, Оливер Ллевелин Дженкинс

Описание:

Лепрекон оживает в современном мире, когда группа девушек из сестринства по незнанию будит его, снеся хижину, чтобы построить новый дом для сестринства.

Качество: WEB-DLRip
Формат: AVI

Видео: 688x384 (1.79:1), 23.976 fps, XviD build 73 ~981 kbps avg, 0.16 bit/pixel
Аудио: 48 kHz, MPEG Layer 3, 2 ch, ~128.00 kbps avg
скриншот  скриншот  скриншот  скриншот  

General
Complete name : Leprechaun.Returns.2018.WEB-DLRip.Portablius.avi
Format : AVI
Format/Info : Audio Video Interleave
File size : 744 MiB
Duration : 1 h 32 min
Overall bit rate : 1 119 kb/s
Writing application : VirtualDubMod 1.5.10.3 | www.virtualdub-fr.org || (build 2550/release)
Writing library : VirtualDubMod build 2550/release

Video
ID : 0
Format : MPEG-4 Visual
Format profile : Advanced Simple@L5
Format settings : BVOP1 / Custom Matrix
Format settings, BVOP : 1
Format settings, QPel : No
Format settings, GMC : No warppoints
Format settings, Matrix : Custom
Codec ID : XVID
Codec ID/Hint : XviD
Duration : 1 h 32 min
Bit rate : 982 kb/s
Width : 688 pixels
Height : 384 pixels
Display aspect ratio : 16:9
Frame rate : 23.976 (24000/1001) FPS
Color space : YUV
Chroma subsampling : 4:2:0
Bit depth : 8 bits
Scan type : Progressive
Compression mode : Lossy
Bits/(Pixel*Frame) : 0.155
Stream size : 652 MiB (88%)
Writing library : XviD 73

Audio
ID : 1
Format : MPEG Audio
Format version : Version 1
Format profile : Layer 3
Codec ID : 55
Codec ID/Hint : MP3
Duration : 1 h 32 min
Bit rate mode : Constant
Bit rate : 128 kb/s
Channel(s) : 2 channels
Sampling rate : 48.0 kHz
Frame rate : 41.667 FPS (1152 SPF)
Compression mode : Lossy
Stream size : 85.1 MiB (11%)
Alignment : Aligned on interleaves
Interleave, duration : 42 ms (1.00 video frame)
Interleave, preload duratio : 504 ms
Writing library : LAME3.99r
Encoding settings : -m s -V 4 -q 2 -lowpass 17 -b 128

pb.wtf



Скачать Лепрекон возвращается через торрент https://b.radikal.ru/b43/1904/18/8f5230253265.jpg Скачать фильм Лепрекон возвращается через торрент бесплантно в хорошем качестве Описание: Лепрекон оживает в современном мире, когда группа девушек из сестринства по незнанию будит его, снеся хижину, чтобы построить ... 10 10 9
Торрент: Зарегистрирован [2019-04-18 18:42] · скачан: 100 раз
Статус: T временная
Размер: 744 MB
Как cкачать? Как скачать Лепрекон возвращается через торрент | qTorrent

% Раздел Тема Автор DL S | L
T Фильмы (WEB-DL 720p, 1080p) [ 5.91 GB ] Лепрекон возвращается / Leprechaun Returns [2018 WEB-DL 1080p] MVO [HDRezka Studio] - ExKinoRay Enigma2010 Скачать
1 | 0
T Фильмы 2018 [DVDrip, WEB-DLRip, HDrip] (DUB, MVO) [ 1.37 GB ] Лепрекон возвращается / Leprechaun Returns [2018 WEB-DLRip] MVO [HDRezka Studio] - ExKinoRay Enigma2010 Скачать
2 | 0

28-11-2019 20:33  

Отключить всю рекламу на сайте

    Дорогой пользователь! Огромная просьба, поблагодарите релизера, оцените раздачу и оставьте свои комментарий, если Вы скачали Лепрекон возвращается через торрент бесплатно! Внесите свою лепту в развитие PiratBit!
    Комментировать посты могут только пользователи прошедшие не сложную регистрацию
    Показать сообщения:    

    Лепрекон возвращается через торрент
    Скачать бесплатно Лепрекон возвращается
    Лепрекон возвращается скачать торрент
    Лепрекон возвращается смотреть онлайн
    Cкачать фильм Лепрекон возвращается бесплатно
    Лепрекон возвращается скачать торрент в хорошем качестве
    Лепрекон возвращается смотреть онлайн бесплатно в хорошем качестве


    Вы не можете начинать темы
    Вы не можете отвечать на сообщения
    Вы не можете редактировать свои сообщения
    Вы не можете удалять свои сообщения
    Вы не можете голосовать в опросах
    Вы не можете прикреплять файлы к сообщениям
    Вы можете скачивать файлы