Мега распродажа FORZA HORIZON 4 ULTIMATE+ВСЕ DLC+ОНЛАЙН всего за 499р. 349 руб. (супер цена). Внимание количество ограничено!!!

Лицензия

30

iTunes

мы

iTunes

1

1 сезон

Чернобыль

1 сезон

Ральф против интернета

MVO

Покемон. Детектив Пикачу

8 сезон

Игра престолов

iTunes

1+1

ИГРА 18+

pack

ВАЖНО

!!Акция!!

Alien_RageХит недели

RePack

Resident Evil 21
pack

RePack

Metro:Exodus

!!Акция!!

Alien_Rage

RePack

fifa19

RePack

Assassins Creed: Odyssey

RePack

NEED FOR SPEED™ PAYBACK

3 сезон

9 сезон

Бесстыжие 9 сезон

Все сериалы

все сериалы на PB.wtf

RePack

FAR CRY 5
Ребята, катастрофически не хватает 2730р. для оплаты серверов за МАЙ (всвязи с блокировками трафик упал в 3 раза), 1-2р., выручайте.
  

Затерянные во льдах / Arctic (Джо Пенна) [2018, драма, приключения, WEBRip 720p] MVO [@MUZOBOZ@] pb.wtf

Затерянные во льдах через торрент pb.wtf

Размер: 2.98 GB | Добавлен: 2 мес. 8 д. назад | Торрент скачан:312 раз
Скачать  

18-04-2019 18:55 Затерянные во льдах Скачать торрент  

Затерянные во льдах / Arctic Год выпуска: 2018
Страна: Исландия
Жанр: драма, приключения
Продолжительность: 01:29:36
Перевод: Любительский (многоголосый) | @MUZOBOZ@
Субтитры: Иероглифы

Режиссер: Джо Пенна

rating

В ролях:

Мадс Миккельсен, Мария Тельма Смарадоттир

Описание:

В арктической пустыне - ледяной, снежной, оторванной от мира - где температура воздуха может опускаться до 70⁰С, Хаксли, пилот потерпевшего крушение вертолета, отчаянно борется за жизнь. Он научился справляться с холодом, охотиться, чтобы прокормить себя. В этих условиях ему предстоит заботиться о случайной попутчице, с которой его свела судьба. Двое на краю земли - их ждет опасное путешествие и серьезная битва за выживание.

Качество: WEBRip 720p
Формат: MKV

Видео: h.264, 4 374 Кбит/с, 1280x536
Аудио#1: Русский, (AC3, 2 ch, 384 Кбит/с)
скриншот  скриншот  скриншот  

Общее
Уникальный идентификатор : 180198582473460158316010020134893798299 (0x8790FC0E3BA00CF3B860AE33EF22439B)
Полное имя : D:\Arctic.2019.P.HDTV.72Op.mkv
Формат : Matroska
Версия формата : Version 2
Размер файла : 2,98 Гбайт
Продолжительность : 1 ч. 29 м.
Режим общего битрейта : Переменный
Общий поток : 4760 Кбит/сек
Дата кодирования : UTC 2019-04-16 03:47:31
Программа кодирования : mkvmerge v8.3.0 ('Over the Horizon') 64bit
Библиотека кодирования : libebml v1.3.1 + libmatroska v1.4.2

Видео
Идентификатор : 1
Формат : AVC
Формат/Информация : Advanced Video Codec
Профиль формата : High@L4.1
Параметр CABAC формата : Да
Параметр RefFrames формата : 4 кадра
Идентификатор кодека : V_MPEG4/ISO/AVC
Продолжительность : 1 ч. 29 м.
Вид битрейта : Переменный
Битрейт : 4374 Кбит/сек
Максимальный битрейт : 5000 Кбит/сек
Ширина : 1280 пикселей
Высота : 536 пикселей
Соотношение сторон : 2,40:1
Режим частоты кадров : Постоянный
Частота кадров : 23,976 (24000/1001) кадра/сек
Стандарт вещания : Component
Цветовое пространство : YUV
Субдискретизация насыщенности : 4:2:0
Битовая глубина : 8 бит
Тип развёртки : Прогрессивная
Бит/(Пиксели*Кадры) : 0.260
Размер потока : 2,68 Гбайт (90%)
Default : Да
Forced : Нет
Цветовой диапазон : Limited
Основные цвета : BT.709
Характеристики трансфера : BT.709
Коэффициенты матрицы : BT.709

Аудио
Идентификатор : 2
Формат : AC-3
Формат/Информация : Audio Coding 3
Расширение режима : CM (complete main)
Параметр Endianness формата : Big
Идентификатор кодека : A_AC3
Продолжительность : 1 ч. 29 м.
Вид битрейта : Постоянный
Битрейт : 384 Кбит/сек
Каналы : 2 канала
Расположение каналов : Front: L R
Частота : 48,0 КГц
Частота кадров : 31,250 кадров/сек (1536 spf)
Метод сжатия : С потерями
Размер потока : 246 Мбайт (8%)
Default : Да
Forced : Нет

pb.wtf



Скачать Затерянные во льдах через торрент https://b.radikal.ru/b31/1902/ae/603679dab4bd.jpg Скачать фильм Затерянные во льдах через торрент бесплантно в хорошем качестве Описание: В арктической пустыне - ледяной, снежной, оторванной от мира - где температура воздуха может опускаться до 70⁰С, Хаксли, пилот ... 10 10 10
Торрент: Зарегистрирован [2019-04-18 18:55] · скачан: 312 раз
Статус: T временная
Размер: 2.98 GB
Как cкачать? Как скачать Затерянные во льдах через торрент | qTorrent

% Раздел Тема Автор DL S | L
Фильмы (Blu-ray, BD-Remux, HDDVD) [ 24.44 GB ] Затерянные во льдах / Arctic [2018 BD Remux 1080p] bober100 Скачать
4 | 0
Фильмы 2018 [DVDrip, WEB-DLRip, HDrip] (DUB, MVO) [ 1.42 GB ] Затерянные во льдах / Arctic [2018 BDRip] - Twi7ter Скачать
209 | 3
Фильмы [HD 720p, 1080p] (Хороший звук DUB, MVO) [ 4.52 GB ] Затерянные во льдах / Arctic [2018 BDRip 720p] bober100 Скачать
5 | 0
Фильмы 2018 [DVDrip, WEB-DLRip, HDrip] (DUB, MVO) [ 1.45 GB ] Затерянные во льдах / Arctic [2018 HDRip] bober100 Скачать
8 | 0
Фильмы [HD 720p, 1080p] (Хороший звук DUB, MVO) [ 9.87 GB ] Затерянные во льдах / Arctic [2018 BDRip 1080p] bober100 Скачать
5 | 0


>> Регистрируемся здесь <<






Отзывы и комментарии о схеме читаем и пишем здесь: ---> Отзывы и комментарии о схеме

Новые благодарочки в телеграм довольных пользователей:
скриншот   скриншот   скриншот   скриншот   скриншот

24-04-2019 19:17 Затерянные во льдах Скачать торрент  

    Дорогой пользователь! Огромная просьба, поблагодарите релизера, оцените раздачу и оставьте свои комментарий, если Вы скачали Затерянные во льдах через торрент бесплатно! Внесите свою лепту в развитие PiratBit!
    Комментировать посты могут только пользователи прошедшие не сложную регистрацию
    Показать сообщения:    

    Затерянные во льдах через торрент
    Скачать бесплатно Затерянные во льдах
    Затерянные во льдах скачать торрент
    Затерянные во льдах смотреть онлайн
    Cкачать фильм Затерянные во льдах бесплатно
    Затерянные во льдах скачать торрент в хорошем качестве
    Затерянные во льдах смотреть онлайн бесплатно в хорошем качестве


    Вы не можете начинать темы
    Вы не можете отвечать на сообщения
    Вы не можете редактировать свои сообщения
    Вы не можете удалять свои сообщения
    Вы не можете голосовать в опросах
    Вы не можете прикреплять файлы к сообщениям
    Вы можете скачивать файлы