Наша группа ВК в очередной раз забанена мы уходим в Телеграм, присоединяйтесь!!!

Лицензия

30

iTunes

Как приручить дракона 3

iTunes

1

1 сезон

Чернобыль

iTunes

Снегоуборщик

iTunes

Закатать в асфальт

8 сезон

Игра престолов

iTunes

Ральф против интернета Хит недели

ИГРА 18+

pack

ВАЖНО

!!Акция!!

Alien_RageХит недели

RePack

Resident Evil 21
pack

RePack

Metro:Exodus

!!Акция!!

Alien_Rage

RePack

fifa19

RePack

Assassins Creed: Odyssey

RePack

NEED FOR SPEED™ PAYBACK

3 сезон

9 сезон

Бесстыжие 9 сезон

Все сериалы

все сериалы на PB.wtf

RePack

FAR CRY 5
Ребята, катастрофически не хватает 2730р. для оплаты серверов за АПРЕЛЬ (всвязи с блокировками трафик упал в 3 раза), 1-2р., выручайте.
  

Проклятый дом / Ведьма в окне / The Witch in the Window (Энди Миттон) [2018, Драма, ужасы, WEB-DL 1080p] MVO [HDRezka Studio] pb.wtf

Проклятый дом через торрент pb.wtf

Раздают: 4 [ 7 KB/s ]
Размер: 2.2 GB | Добавлен: 1 мес. 3 д. назад | Торрент скачан:137 раз
Скачать  

18-04-2019 19:17 Проклятый дом Скачать торрент  

Проклятый дом / Ведьма в окне / The Witch in the Window Год выпуска: 2018
Страна: США
Жанр: Драма, ужасы
Продолжительность: 01:17:10
Перевод: Профессиональный (многоголосый) | HDRezka Studio
Субтитры: Английские

Режиссер: Энди Миттон

rating


В ролях:

Алекс Дрэйпер, Чарльз Эверетт Такер, Кэрол Станционе, Грег Нафтон, Ария Барейкис

Описание:

Отец с 12-летним сыном приезжают в сельский штат Вермонт, чтобы восстановить старый дом. Там они сталкиваются со злым духом прежней владелицы дома, и чем дальше продвигается ремонт, тем сильнее становится злобный призрак.

Качество: WEB-DL 1080p
Формат: MKV

Видео: MPEG-4 AVC, 3662 Кбит/с, 1920х1080
Аудио#1: Русский: AC3, 2 ch, 192 Кбит/с - HDRezka Studio
Аудио#2: Английский: E-AC3, 2 ch, 224 Кбит/с - Original
скриншот  скриншот  скриншот  скриншот  

General
Unique ID : 105542980638682352357727439158187136894 (0x4F66D6B3F1119BB8235564FC0FE8177E)
Complete name : G:The.Witch.in.the.Window.2018.WEB-DL.1080p.mkv
Format : Matroska
Format version : Version 4 / Version 2
File size : 2.20 GiB
Duration : 1 h 17 min
Overall bit rate : 4 080 kb/s
Encoded date : UTC 2019-04-18 17:31:10
Writing application : mkvmerge v20.0.0 ('I Am The Sun') 64-bit
Writing library : libebml v1.3.5 + libmatroska v1.4.8

Video
ID : 1
Format : AVC
Format/Info : Advanced Video Codec
Format profile : High@L4
Format settings : CABAC / 4 Ref Frames
Format settings, CABAC : Yes
Format settings, RefFrames : 4 frames
Codec ID : V_MPEG4/ISO/AVC
Duration : 1 h 17 min
Bit rate : 3 662 kb/s
Width : 1 920 pixels
Height : 1 080 pixels
Display aspect ratio : 16:9
Frame rate mode : Constant
Frame rate : 23.976 (24000/1001) FPS
Color space : YUV
Chroma subsampling : 4:2:0
Bit depth : 8 bits
Scan type : Progressive
Bits/(Pixel*Frame) : 0.074
Stream size : 1.97 GiB (90%)
Language : English
Default : Yes
Forced : No
Color range : Limited
Color primaries : BT.709
Transfer characteristics : BT.709
Matrix coefficients : BT.709

Audio #1
ID : 2
Format : AC-3
Format/Info : Audio Coding 3
Codec ID : A_AC3
Duration : 1 h 17 min
Bit rate mode : Constant
Bit rate : 192 kb/s
Channel(s) : 2 channels
Channel positions : Front: L R
Sampling rate : 48.0 kHz
Frame rate : 31.250 FPS (1536 SPF)
Bit depth : 16 bits
Compression mode : Lossy
Stream size : 106 MiB (5%)
Title : MVO HDRezka Studio
Language : Russian
Service kind : Complete Main
Default : Yes
Forced : No

Audio #2
ID : 3
Format : E-AC-3
Format/Info : Enhanced Audio Coding 3
Codec ID : A_EAC3
Duration : 1 h 17 min
Bit rate mode : Constant
Bit rate : 224 kb/s
Channel(s) : 2 channels
Channel positions : Front: L R
Sampling rate : 48.0 kHz
Frame rate : 187.500 FPS (256 SPF)
Compression mode : Lossy
Stream size : 124 MiB (5%)
Language : English
Service kind : Complete Main
Default : No
Forced : No

Text
ID : 4
Format : UTF-8
Codec ID : S_TEXT/UTF8
Codec ID/Info : UTF-8 Plain Text
Duration : 1 h 14 min
Bit rate : 47 b/s
Count of elements : 936
Stream size : 25.8 KiB (0%)
Language : English
Default : No
Forced : No

pb.wtf



Скачать Проклятый дом через торрент https://i106.fastpic.ru/big/2019/0125/27/4edd9c1f6c2b538a2ca15b29f57a7627.jpg Скачать фильм Проклятый дом через торрент бесплантно в хорошем качестве Описание: Отец с 12-летним сыном приезжают в сельский штат Вермонт, чтобы восстановить старый дом. Там они сталкиваются со злым духом ... 10 10 4
Торрент: Зарегистрирован [2019-04-18 19:17] · скачан: 137 раз
Статус: T временная
Размер: 2.2 GB
Как cкачать? Как скачать Проклятый дом через торрент | qTorrent

% Раздел Тема Автор DL S | L
T Фильмы (мультфильмы) cо спонсором показа (Новинки AVI/MKV) [ 3.48 GB ] Проклятый дом / Ведьма в окне / The Witch in the Window [2018 WEB-DL 1080p] DUB [Line] bober100 Скачать
2 | 0
T Фильмы (мультфильмы) cо спонсором показа (Новинки AVI/MKV) [ 3.04 GB ] Проклятый дом / Ведьма в окне / The Witch in the Window [2018 WEB-DL 720p] DUB [Line] bober100 Скачать
1 | 0
T Фильмы (мультфильмы) cо спонсором показа (Новинки AVI/MKV) [ 1.36 GB ] Проклятый дом / Ведьма в окне / The Witch in the Window [2018 WEB-DLRip] DUB [Line] bober100 Скачать
3 | 0


>> Регистрируемся здесь <<






Отзывы и комментарии о схеме читаем и пишем здесь: ---> Отзывы и комментарии о схеме

Новые благодарочки в телеграм довольных пользователей:
скриншот   скриншот   скриншот   скриншот   скриншот
    Дорогой пользователь! Огромная просьба, поблагодарите релизера, оцените раздачу и оставьте свои комментарий, если Вы скачали Проклятый дом через торрент бесплатно! Внесите свою лепту в развитие PiratBit!
    Комментировать посты могут только пользователи прошедшие не сложную регистрацию
    Показать сообщения:    

    Проклятый дом через торрент
    Скачать бесплатно Проклятый дом
    Проклятый дом скачать торрент
    Проклятый дом смотреть онлайн
    Cкачать фильм Проклятый дом бесплатно
    Проклятый дом скачать торрент в хорошем качестве
    Проклятый дом смотреть онлайн бесплатно в хорошем качестве


    Вы не можете начинать темы
    Вы не можете отвечать на сообщения
    Вы не можете редактировать свои сообщения
    Вы не можете удалять свои сообщения
    Вы не можете голосовать в опросах
    Вы не можете прикреплять файлы к сообщениям
    Вы можете скачивать файлы