Ссылка на приватное зеркало нашего сайта всего за 1$. Внимание количество ограничено!!!

2 сезон

iTunes

1 сезон

1

2 сезон

2 сезон

iTunes

1 сезон

RePack

30

Новинка

ВАЖНО

ИГРА 18+

pack

RePack

MK11
pack

Забери бонус

RePack

jed

!!Акция!!

Alien_Rage

RePack

fifa19

RePack

Assassins Creed: Odyssey

RePack

NEED FOR SPEED™ PAYBACK

4 сезон

9 сезон

Бесстыжие 9 сезон

Все сериалы

все сериалы на PB.wtf

RePack

FAR CRY 5
  

Тим Талер, или Проданный смех / Timm Thaler oder das verkaufte Lachen (Андреас Дрезен) [2017, Фэнтези, драма, комедия, приключения, семейный, BD Remux 1080p] DUB [iTunes] pb.wtf

Тим Талер, или Проданный смех через торрент pb.wtf

Размер: 21.06 GB | Добавлен: 1 год 7 мес. назад | Торрент скачан:23 раза
Скачать  

19-04-2019 00:38 Тим Талер, или Проданный смех Скачать торрент  

Тим Талер, или Проданный смех
Timm Thaler oder das verkaufte Lachen

Год выпуска: 2017
Страна: Германия
Жанр: Фэнтези, драма, комедия, приключения, семейный
Продолжительность: 01:42:28
Перевод: Дублированный | iTunes
Субтитры: Русские (Full), английские

Режиссер: Андреас Дрезен

rating

В ролях:

Арвед Фризе, Юстус фон Донаньи, Аксель Праль, Андреас Шмидт, Жюль Херман, Чарли Хюбнер, Харальд Шмидт, Надя Уль, Фритци Хаберландт, Бьярне Медел

Описание:

Мальчик по имени Тим Талер больше всего на свете любил смеяться, и смех у него был жутко заразительным. Однажды на скачках Тим знакомится со странным господином, который предлагает мальчику интересную сделку: Тим продаёт ему свой смех и теперь будет выигрывать любые пари…

Качество: BD Remux 1080p
Формат: MKV

Видео: MPEG-4 AVC, 1920x1080, 27 Mbit/s, 24 fps
Аудио#1: 48 kHz, AC3, 5.1, 384 Kbps | iTunes | RUS |
Аудио#2: 48 kHz, DTS-HD HRA, 5.1, 2046 Kbps | Оригинал | GER |
скриншот  скриншот  скриншот  скриншот  скриншот  

General
Unique ID : 44236673870157596234314379322192525720 (0x2147AC697DA979507658ACB7AAEB7998)
Complete name : D:Video111Timm.Thaler.oder.das.verkaufte.Lachen.2017.BDREMUX.1080p.seleZen.mkv
Format : Matroska
Format version : Version 4
File size : 21.1 GiB
Duration : 1 h 42 min
Overall bit rate mode : Variable
Overall bit rate : 29.4 Mb/s
Movie name : Timm Thaler oder das verkaufte Lachen 2017 from селезень
Encoded date : UTC 2019-04-18 17:19:55
Writing application : mkvmerge v32.0.0 ('Astral Progressions') 64-bit
Writing library : libebml v1.3.7 + libmatroska v1.5.0

Video
ID : 1
Format : AVC
Format/Info : Advanced Video Codec
Format profile : High@L4.1
Format settings : CABAC / 4 Ref Frames
Format settings, CABAC : Yes
Format settings, ReFrames : 4 frames
Codec ID : V_MPEG4/ISO/AVC
Duration : 1 h 42 min
Bit rate mode : Variable
Bit rate : 27.0 Mb/s
Maximum bit rate : 35.0 Mb/s
Width : 1 920 pixels
Height : 1 080 pixels
Display aspect ratio : 16:9
Frame rate mode : Constant
Frame rate : 24.000 FPS
Color space : YUV
Chroma subsampling : 4:2:0
Bit depth : 8 bits
Scan type : Progressive
Bits/(Pixel*Frame) : 0.542
Stream size : 19.3 GiB (92%)
Language : German
Default : Yes
Forced : No

Audio #1
ID : 2
Format : AC-3
Format/Info : Audio Coding 3
Commercial name : Dolby Digital
Codec ID : A_AC3
Duration : 1 h 42 min
Bit rate mode : Constant
Bit rate : 384 kb/s
Channel(s) : 6 channels
Channel layout : L R C LFE Ls Rs
Sampling rate : 48.0 kHz
Frame rate : 31.250 FPS (1536 SPF)
Bit depth : 16 bits
Compression mode : Lossy
Stream size : 281 MiB (1%)
Title : iTunes
Language : Russian
Service kind : Complete Main
Default : Yes
Forced : Yes

Audio #2
ID : 3
Format : DTS XBR
Format/Info : Digital Theater Systems
Commercial name : DTS-HD High Resolution Audio
Codec ID : A_DTS
Duration : 1 h 42 min
Bit rate mode : Constant
Bit rate : 2 046 kb/s
Channel(s) : 6 channels
Channel layout : C L R Ls Rs LFE
Sampling rate : 48.0 kHz
Frame rate : 93.750 FPS (512 SPF)
Bit depth : 24 bits
Compression mode : Lossy
Stream size : 1.46 GiB (7%)
Title : Original
Language : German
Default : No
Forced : No

Text #1
ID : 4
Format : UTF-8
Codec ID : S_TEXT/UTF8
Codec ID/Info : UTF-8 Plain Text
Duration : 1 h 41 min
Bit rate : 96 b/s
Count of elements : 1220
Stream size : 71.7 KiB (0%)
Title : Full
Language : Russian
Default : No
Forced : No

Text #2
ID : 5
Format : UTF-8
Codec ID : S_TEXT/UTF8
Codec ID/Info : UTF-8 Plain Text
Duration : 1 h 41 min
Bit rate : 52 b/s
Count of elements : 1221
Stream size : 39.0 KiB (0%)
Title : Full
Language : English
Default : No
Forced : No

Menu
00:00:00.000 : de:Глава 01
00:03:51.250 : de:Глава 02
00:08:39.458 : de:Глава 03
00:13:12.708 : de:Глава 04
00:17:29.625 : de:Глава 05
00:22:08.458 : de:Глава 06
00:28:09.250 : de:Глава 07
00:33:06.042 : de:Глава 08
00:38:36.792 : de:Глава 09
00:44:47.625 : de:Глава 10
00:52:13.125 : de:Глава 11
00:57:46.667 : de:Глава 12
01:04:50.625 : de:Глава 13
01:08:37.833 : de:Глава 14
01:13:37.625 : de:Глава 15
01:17:57.542 : de:Глава 16
01:23:56.500 : de:Глава 17
01:28:43.917 : de:Глава 18
01:33:45.083 : de:Глава 19
01:36:39.958 : de:Глава 20

pb.wtf



Скачать Тим Талер, или Проданный смех через торрент http://img16.lostpic.net/2019/04/18/d9cf114919a78efd3ede32d58b0cd768.jpg Скачать фильм Тим Талер, или Проданный смех через торрент бесплантно в хорошем качестве Описание: Мальчик по имени Тим Талер больше всего на свете любил смеяться, и смех у него был жутко заразительным. Однажды на скачках Тим ... 10 10 3
Торрент: Зарегистрирован [2019-04-19 00:38] · скачан: 23 раз
Статус: √ проверено
Размер: 21.06 GB
Как cкачать? Как скачать Тим Талер, или Проданный смех через торрент | qTorrent

28-11-2019 20:33  

Отключить всю рекламу на сайте

    Дорогой пользователь! Огромная просьба, поблагодарите релизера, оцените раздачу и оставьте свои комментарий, если Вы скачали Тим Талер, или Проданный смех через торрент бесплатно! Внесите свою лепту в развитие PiratBit!
    Комментировать посты могут только пользователи прошедшие не сложную регистрацию
    Показать сообщения:    

    Тим Талер, или Проданный смех через торрент
    Скачать бесплатно Тим Талер, или Проданный смех
    Тим Талер, или Проданный смех скачать торрент
    Тим Талер, или Проданный смех смотреть онлайн
    Cкачать фильм Тим Талер, или Проданный смех бесплатно
    Тим Талер, или Проданный смех скачать торрент в хорошем качестве
    Тим Талер, или Проданный смех смотреть онлайн бесплатно в хорошем качестве


    Вы не можете начинать темы
    Вы не можете отвечать на сообщения
    Вы не можете редактировать свои сообщения
    Вы не можете удалять свои сообщения
    Вы не можете голосовать в опросах
    Вы не можете прикреплять файлы к сообщениям
    Вы можете скачивать файлы