Мега распродажа FORZA HORIZON 4 ULTIMATE+ВСЕ DLC+ОНЛАЙН всего за 499р. 349 руб. (супер цена). Внимание количество ограничено!!!

iTunes

1+1

iTunes

мы

iTunes

1

1 сезон

Чернобыль

1 сезон

Ральф против интернета

Лицензия

ПШазам

8 сезон

Игра престолов

Лицензия

30
pack

ВАЖНО

!!Акция!!

Alien_RageХит недели

RePack

Resident Evil 21

ИГРА 18+

pack

RePack

Metro:Exodus

!!Акция!!

Alien_Rage

RePack

fifa19

RePack

Assassins Creed: Odyssey

RePack

NEED FOR SPEED™ PAYBACK

3 сезон

9 сезон

Бесстыжие 9 сезон

Все сериалы

все сериалы на PB.wtf

RePack

FAR CRY 5
Ребята, катастрофически не хватает 2730р. для оплаты серверов за ИЮНЬ (всвязи с блокировками трафик упал в 3 раза), 1-2р., выручайте.
  

Игры разумов / The Professor and the Madman (Фарад Сафиниа) [2019, триллер, драма, детектив, биография, WEB-DL 1080p] MVO [@MUZOBOZ@] pb.wtf

Игры разумов через торрент pb.wtf

Размер: 5.69 GB | Добавлен: 3 мес. 4 д. назад | Торрент скачан:290 раз
Скачать  

19-04-2019 06:16 Игры разумов Скачать торрент  

Игры разумов / The Professor and the Madman Год выпуска: 2019
Страна: Ирландия
Жанр: триллер, драма, детектив, биография
Продолжительность: 02:04:56
Перевод: Любительский (многоголосый) | @MUZOBOZ@
Субтитры: отсутствуют

Режиссер: Фарад Сафиниа

rating

В ролях:

Мэл Гибсон, Шон Пенн, Натали Дормер, Джереми Ирвин, Дженнифер Эль, Стив Куган, Стивен Диллэйн, Эдди Марсан, Йоан Гриффит, Лоуренс Фокс

Описание:

Англия середины XIX века. Оксфордский профессор Джеймс Мюррей работает над первым в истории словарем английского языка, а его главным соратником становится заключенный психиатрической клиники для особо опасных преступников - доктор Уильям Майнор. Гений Майнор или сумасшедший, хитроумный преступник, ведущий дерзкую игру, чтобы вырваться на свободу, или одержимый ученый? И кто тогда Мюррей: верный друг, жертва манипуляции или организатор сговора?

Качество: WEB-DL 1080p
Формат: MKV

Видео: h.264,6 126 Кбит/с, 1912x796
Аудио#1: Русский, (AC3, 2 ch, 384 Кбит/с)
скриншот  скриншот  скриншот  

Общее
Уникальный идентификатор : 226920821630751794049194742993779600216 (0xAAB75C4C3DF999F491A3291D9C1EAB58)
Полное имя : D:\The.Professor.and.the.Madman.2019.P.WEB-DL.1O8Op.mkv
Формат : Matroska
Версия формата : Version 2
Размер файла : 5,69 Гбайт
Продолжительность : 2 ч. 4 м.
Режим общего битрейта : Переменный
Общий поток : 6517 Кбит/сек
Дата кодирования : UTC 2019-04-17 03:29:28
Программа кодирования : mkvmerge v8.3.0 ('Over the Horizon') 64bit
Библиотека кодирования : libebml v1.3.1 + libmatroska v1.4.2

Видео
Идентификатор : 1
Формат : AVC
Формат/Информация : Advanced Video Codec
Профиль формата : High@L4.1
Параметр CABAC формата : Да
Параметр RefFrames формата : 4 кадра
Идентификатор кодека : V_MPEG4/ISO/AVC
Продолжительность : 2 ч. 4 м.
Вид битрейта : Переменный
Битрейт : 6126 Кбит/сек
Максимальный битрейт : 6900 Кбит/сек
Ширина : 1912 пикселей
Высота : 798 пикселей
Соотношение сторон : 2,40:1
Режим частоты кадров : Постоянный
Частота кадров : 23,976 (24000/1001) кадра/сек
Стандарт вещания : Component
Цветовое пространство : YUV
Субдискретизация насыщенности : 4:2:0
Битовая глубина : 8 бит
Тип развёртки : Прогрессивная
Бит/(Пиксели*Кадры) : 0.164
Размер потока : 5,24 Гбайт (92%)
Default : Да
Forced : Нет
Цветовой диапазон : Limited
Основные цвета : BT.709
Характеристики трансфера : BT.709
Коэффициенты матрицы : BT.709

Аудио
Идентификатор : 2
Формат : AC-3
Формат/Информация : Audio Coding 3
Расширение режима : CM (complete main)
Параметр Endianness формата : Big
Идентификатор кодека : A_AC3
Продолжительность : 2 ч. 4 м.
Вид битрейта : Постоянный
Битрейт : 384 Кбит/сек
Каналы : 2 канала
Расположение каналов : Front: L R
Частота : 48,0 КГц
Частота кадров : 31,250 кадров/сек (1536 spf)
Метод сжатия : С потерями
Размер потока : 343 Мбайт (6%)
Default : Да
Forced : Нет

pb.wtf



Скачать Игры разумов через торрент https://d.radikal.ru/d27/1904/ba/29d1a17f6262.jpg Скачать фильм Игры разумов через торрент бесплантно в хорошем качестве Описание: Англия середины XIX века. Оксфордский профессор Джеймс Мюррей работает над первым в истории словарем английского языка, а его ... 10 10 13
Торрент: Зарегистрирован [2019-04-19 06:16] · скачан: 290 раз
Статус: T временная
Размер: 5.69 GB
Как cкачать? Как скачать Игры разумов через торрент | qTorrent

% Раздел Тема Автор DL S | L
Фильмы (Blu-ray, BD-Remux, HDDVD) [ 27.01 GB ] Игры разумов / The Professor and the Madman [2019 биография BD Remux 1080p] +MVO [HDRezka Studio] bober100 Скачать
6 | 0
Фильмы 2019 [DVDrip, WEB-DLRip, HDrip] (DUB, MVO) [ 2.13 GB ] Игры разумов / The Professor and the Madman [2019 биография BDRip] - Twi7ter Скачать
72 | 2
Фильмы 2019 [DVDrip, WEB-DLRip, HDrip] (DUB, MVO) [ 1.46 GB ] Игры разумов / The Professor and the Madman [2019 биография BDRip] - Twi7ter Скачать
74 | 2
Фильмы 2019 [DVDrip, WEB-DLRip, HDrip] (DUB, MVO) [ 742 MB ] Игры разумов / The Professor and the Madman [2018 биография HDRip ""] coc900 Скачать
1 | 0
Фильмы [HD 720p, 1080p] (Хороший звук DUB, MVO) [ 9.77 GB ] Игры разумов / The Professor and the Madman [2019 биография BDRip 1080p] +MVO [HDRezka Studio] bober100 Скачать
21 | 0
Фильмы 2019 [DVDrip, WEB-DLRip, HDrip] (DUB, MVO) [ 2.12 GB ] Игры разумов / The Professor and the Madman [2019 биография BDRip] bober100 Скачать
9 | 0
Фильмы 2019 [DVDrip, WEB-DLRip, HDrip] (DUB, MVO) [ 1.46 GB ] Игры разумов / The Professor and the Madman [2019 биография BDRip] bober100 Скачать
4 | 0


>> Регистрируемся здесь <<






Отзывы и комментарии о схеме читаем и пишем здесь: ---> Отзывы и комментарии о схеме

Новые благодарочки в телеграм довольных пользователей:
скриншот   скриншот   скриншот   скриншот   скриншот

22-04-2019 04:55 Игры разумов Скачать торрент  

    Дорогой пользователь! Огромная просьба, поблагодарите релизера, оцените раздачу и оставьте свои комментарий, если Вы скачали Игры разумов через торрент бесплатно! Внесите свою лепту в развитие PiratBit!
    Комментировать посты могут только пользователи прошедшие не сложную регистрацию
    Показать сообщения:    

    Игры разумов через торрент
    Скачать бесплатно Игры разумов
    Игры разумов скачать торрент
    Игры разумов смотреть онлайн
    Cкачать фильм Игры разумов бесплатно
    Игры разумов скачать торрент в хорошем качестве
    Игры разумов смотреть онлайн бесплатно в хорошем качестве


    Вы не можете начинать темы
    Вы не можете отвечать на сообщения
    Вы не можете редактировать свои сообщения
    Вы не можете удалять свои сообщения
    Вы не можете голосовать в опросах
    Вы не можете прикреплять файлы к сообщениям
    Вы можете скачивать файлы