MEGA SALE -50% FORZA HORIZON 4 ULTIMATE+ВСЕ DLC+ОНЛАЙН всего за 599р. 299 руб. (супер цена). Внимание количество ограничено!!!

iTunes

1+1

iTunes

мы

iTunes

1

iTunes

Чернобыль

1 сезон

Ральф против интернета

Лицензия

ПШазам

Лицензия

Игра престолов

Лицензия

30
pack

ВАЖНО

!!Акция!!

Alien_RageХит недели

RePack

Resident Evil 21

ИГРА 18+

pack

RePack

Metro:Exodus

!!Акция!!

Alien_Rage

RePack

fifa19

RePack

Assassins Creed: Odyssey

RePack

NEED FOR SPEED™ PAYBACK

3 сезон

9 сезон

Бесстыжие 9 сезон

Все сериалы

все сериалы на PB.wtf

RePack

FAR CRY 5
Ребята, катастрофически не хватает 7730р. для оплаты серверов за ИЮЛЬ (всвязи с блокировками трафик упал в 3 раза), 1-2р., выручайте.
  

Пока мы живем / Mens vi lever (Мехди Аваз) [2017, драма, WEB-DL 720p] MVO ["Синема УС"] pb.wtf

Пока мы живем через торрент pb.wtf

Раздают: 2 [ 0 KB/s ]
Размер: 3.76 GB | Добавлен: 4 мес. 2 д. назад | Торрент скачан:40 раз
Скачать  

19-04-2019 09:00 Пока мы живем Скачать торрент  

Пока мы живем / Mens vi lever Год выпуска: 2017
Страна: Дания
Жанр: драма
Продолжительность: 01:34:43
Перевод: Любительский (многоголосый) | "Синема УС"
Субтитры: отсутствуют

Режиссер: Мехди Аваз

rating

В ролях:

Себастьян Йессен, Джули Кристиансен, Шарлотта Манк, Николай Грот, Николас Бро, Хенрик Прип, Юлия Сандра Брокхорст Андерсен, Мари Бода, Пав Хенриксон, Миа Нильсен-Ексен

Описание:

Основанный на реальных событиях фильм рассказывает о жизни четырех людей на севере Дании, чьи судьбы переплетаются после трагического происшествия.

Качество: WEB-DL 720p
Формат: MKV

Видео: h.264,5 291 Кбит/с, 1280x536
Аудио: Русский, (AC3, 2 ch, 384 Кбит/с)
скриншот  скриншот  скриншот  

Общее
Уникальный идентификатор : 252004507245659957096328178701240139137 (0xBD964D7B4A14E783BEAE7DAE7AE47D81)
Полное имя : D:\Mens.Vi.Lever.2017.P.WEB-DL.72Op.mkv
Формат : Matroska
Версия формата : Version 2
Размер файла : 3,76 Гбайт
Продолжительность : 1 ч. 34 м.
Режим общего битрейта : Переменный
Общий поток : 5677 Кбит/сек
Дата кодирования : UTC 2019-04-18 08:16:37
Программа кодирования : mkvmerge v8.3.0 ('Over the Horizon') 64bit
Библиотека кодирования : libebml v1.3.1 + libmatroska v1.4.2

Видео
Идентификатор : 1
Формат : AVC
Формат/Информация : Advanced Video Codec
Профиль формата : High@L4.1
Параметр CABAC формата : Да
Параметр RefFrames формата : 4 кадра
Идентификатор кодека : V_MPEG4/ISO/AVC
Продолжительность : 1 ч. 34 м.
Вид битрейта : Переменный
Битрейт : 5291 Кбит/сек
Максимальный битрейт : 6000 Кбит/сек
Ширина : 1280 пикселей
Высота : 536 пикселей
Соотношение сторон : 2,40:1
Режим частоты кадров : Постоянный
Частота кадров : 23,976 (24000/1001) кадра/сек
Стандарт вещания : Component
Цветовое пространство : YUV
Субдискретизация насыщенности : 4:2:0
Битовая глубина : 8 бит
Тип развёртки : Прогрессивная
Бит/(Пиксели*Кадры) : 0.315
Размер потока : 3,43 Гбайт (91%)
Default : Да
Forced : Нет
Цветовой диапазон : Limited
Основные цвета : BT.709
Характеристики трансфера : BT.709
Коэффициенты матрицы : BT.709

Аудио
Идентификатор : 2
Формат : AC-3
Формат/Информация : Audio Coding 3
Расширение режима : CM (complete main)
Параметр Endianness формата : Big
Идентификатор кодека : A_AC3
Продолжительность : 1 ч. 34 м.
Вид битрейта : Постоянный
Битрейт : 384 Кбит/сек
Каналы : 2 канала
Расположение каналов : Front: L R
Частота : 48,0 КГц
Частота кадров : 31,250 кадров/сек (1536 spf)
Метод сжатия : С потерями
Размер потока : 260 Мбайт (7%)
Default : Да
Forced : Нет

pb.wtf



Скачать Пока мы живем через торрент https://b.radikal.ru/b21/1904/f6/a90608ea6898.jpg Скачать фильм Пока мы живем через торрент бесплантно в хорошем качестве Описание: Основанный на реальных событиях фильм рассказывает о жизни четырех людей на севере Дании, чьи судьбы переплетаются после ... 10 10 3
Торрент: Зарегистрирован [2019-04-19 09:00] · скачан: 40 раз
Статус: T временная
Размер: 3.76 GB
Как cкачать? Как скачать Пока мы живем через торрент | qTorrent

% Раздел Тема Автор DL S | L
T Фильмы (мультфильмы) cо спонсором показа (Новинки AVI/MKV) [ 1.36 GB ] Пока мы живем / Mens vi lever [2017 WEB-DLRip] MVO ["Синема УС"] bober100 Скачать
1 | 0


>> Регистрируемся здесь <<






Отзывы и комментарии о схеме читаем и пишем здесь: ---> Отзывы и комментарии о схеме

Новые благодарочки в телеграм довольных пользователей:
скриншот   скриншот   скриншот   скриншот   скриншот
    Дорогой пользователь! Огромная просьба, поблагодарите релизера, оцените раздачу и оставьте свои комментарий, если Вы скачали Пока мы живем через торрент бесплатно! Внесите свою лепту в развитие PiratBit!
    Комментировать посты могут только пользователи прошедшие не сложную регистрацию
    Показать сообщения:    

    Пока мы живем через торрент
    Скачать бесплатно Пока мы живем
    Пока мы живем скачать торрент
    Пока мы живем смотреть онлайн
    Cкачать фильм Пока мы живем бесплатно
    Пока мы живем скачать торрент в хорошем качестве
    Пока мы живем смотреть онлайн бесплатно в хорошем качестве


    Вы не можете начинать темы
    Вы не можете отвечать на сообщения
    Вы не можете редактировать свои сообщения
    Вы не можете удалять свои сообщения
    Вы не можете голосовать в опросах
    Вы не можете прикреплять файлы к сообщениям
    Вы можете скачивать файлы