Ссылка на приватное зеркало нашего сайта всего за 1$. Внимание количество ограничено!!!

2 сезон

iTunes

1 сезон

1

2 сезон

2 сезон

iTunes

1 сезон

RePack

30

Ultimate

ВАЖНО

ИГРА 18+

pack

RePack

MK11
pack

Забери бонус

RePack

jed

!!Акция!!

Alien_Rage

RePack

fifa19

RePack

Assassins Creed: Odyssey

RePack

NEED FOR SPEED™ PAYBACK

4 сезон

9 сезон

Бесстыжие 9 сезон

Все сериалы

все сериалы на PB.wtf

RePack

FAR CRY 5
  

Phantasma - The Deviant Hearts - 2015/ FLAC/ image +.cue/ lossless/ Symphonic Metal pb.wtf

Phantasma - The Deviant Hearts - 2015 через торрент pb.wtf

Размер: 443 MB | Добавлен: 1 год 7 мес. назад | Торрент скачан:14 раз
Скачать  

19-04-2019 12:05 Phantasma - The Deviant Hearts - 2015 Скачать торрент  


Phantasma - The Deviant Hearts


Год издания: 2015
Страна: International
Жанр: Symphonic Metal
Продолжительность: 01:03:07
Лейбл издания: Napalm Records
Страна-выпуска диска: EU
Номер по каталогу: NPR 630 DR
Формат: FLAC
Битрейт аудио: Lossless
Тип рипа: image +.cue
Наличие сканов в содержимом раздачи: да


01. Incomplete (2:45)
02. The Deviant Hearts (Give Us A Story) (5:26)
03. Runaway Grey (4:25)
04. Try (4:40)
05. Enter Dreamscape (4:18)
06. Miserable Me (4:39)
07. The Lotus And The Willow (4:41)
08. Crimson Course (5:57)
09. Carry Me Home (5:28)
10. The Sound Of Fear (5:16)
11. Novaturient (5:24)
12. Let It Die (5:51)
13. Symphony Of Light (4:17)

Код:

Exact Audio Copy V1.1 from 23. June 2015

EAC extraction logfile from 20. January 2016, 12:48

Phantasma / The Deviant Hearts

Used drive  : TSSTcorpCDDVDW SH-224DB   Adapter: 1  ID: 0

Read mode               : Secure
Utilize accurate stream : Yes
Defeat audio cache      : Yes
Make use of C2 pointers : No

Read offset correction                      : 6
Overread into Lead-In and Lead-Out          : No
Fill up missing offset samples with silence : Yes
Delete leading and trailing silent blocks   : No
Null samples used in CRC calculations       : Yes
Used interface                              : Native Win32 interface for Win NT & 2000

Used output format              : User Defined Encoder
Selected bitrate                : 1024 kBit/s
Quality                         : High
Add ID3 tag                     : No
Command line compressor         : C:\Program Files (x86)\Exact Audio Copy\win64\flac.exe
Additional command line options :  -V -8 -T "Date=%year%" -T "Genre=%genre%" %source%

TOC of the extracted CD

     Track |   Start  |  Length  | Start sector | End sector
    ---------------------------------------------------------
        1  |  0:00.00 |  2:45.11 |         0    |    12385
        2  |  2:45.11 |  5:25.70 |     12386    |    36830
        3  |  8:11.06 |  4:25.14 |     36831    |    56719
        4  | 12:36.20 |  4:39.66 |     56720    |    77710
        5  | 17:16.11 |  4:17.45 |     77711    |    97030
        6  | 21:33.56 |  4:38.62 |     97031    |   117942
        7  | 26:12.43 |  4:40.67 |    117943    |   139009
        8  | 30:53.35 |  5:57.36 |    139010    |   165820
        9  | 36:50.71 |  5:27.46 |    165821    |   190391
       10  | 42:18.42 |  5:16.05 |    190392    |   214096
       11  | 47:34.47 |  5:23.70 |    214097    |   238391
       12  | 52:58.42 |  5:50.69 |    238392    |   264710
       13  | 58:49.36 |  4:17.03 |    264711    |   283988

Range status and errors

Selected range

     Filename C:\Phantasma - The Deviant Hearts 2015\Phantasma - The Deviant Hearts.wav

     Peak level 98.7 %
     Extraction speed 3.3 X
     Range quality 100.0 %
     Test CRC 3C0AF6D0
     Copy CRC 3C0AF6D0
     Copy OK

No errors occurred

AccurateRip summary

Track  1  cannot be verified as accurate (confidence 1)  [91A1E932], AccurateRip returned [72921C14]  (AR v2)
Track  2  cannot be verified as accurate (confidence 1)  [92C34207], AccurateRip returned [00569560]  (AR v2)
Track  3  cannot be verified as accurate (confidence 1)  [EAE56164], AccurateRip returned [0F26D2E4]  (AR v2)
Track  4  cannot be verified as accurate (confidence 1)  [CF06F947], AccurateRip returned [48C7B4B5]  (AR v2)
Track  5  cannot be verified as accurate (confidence 1)  [0BFAF7AB], AccurateRip returned [6DD45B27]  (AR v2)
Track  6  cannot be verified as accurate (confidence 1)  [BACD41D5], AccurateRip returned [255FF5D9]  (AR v2)
Track  7  cannot be verified as accurate (confidence 1)  [7195FFFC], AccurateRip returned [C8F0C337]  (AR v2)
Track  8  cannot be verified as accurate (confidence 1)  [580BCBE3], AccurateRip returned [FD788FF6]  (AR v2)
Track  9  cannot be verified as accurate (confidence 1)  [2BEC4B5C], AccurateRip returned [FFCD98FE]  (AR v2)
Track 10  cannot be verified as accurate (confidence 1)  [6537A25F], AccurateRip returned [51D0499D]  (AR v2)
Track 11  cannot be verified as accurate (confidence 1)  [54594E1A], AccurateRip returned [F1446B4D]  (AR v2)
Track 12  cannot be verified as accurate (confidence 1)  [FC67411A], AccurateRip returned [2B14DEA5]  (AR v2)
Track 13  cannot be verified as accurate (confidence 1)  [CA42C108], AccurateRip returned [EB3F3A69]  (AR v2)

No tracks could be verified as accurate
You may have a different pressing from the one(s) in the database

End of status report

Код:

REM GENRE "Symphonic Metal"
REM DATE 2015
REM DISCID B40ECA0D
REM COMMENT "ExactAudioCopy v1.1"
PERFORMER "Phantasma"
TITLE "The Deviant Hearts"
FILE "Phantasma - The Deviant Hearts.flac" WAVE
  TRACK 01 AUDIO
    TITLE "Incomplete"
    PERFORMER "Phantasma"
    INDEX 01 00:00:00
  TRACK 02 AUDIO
    TITLE "The Deviant Hearts (Give Us A Story)"
    PERFORMER "Phantasma"
    INDEX 01 02:45:11
  TRACK 03 AUDIO
    TITLE "Runaway Grey"
    PERFORMER "Phantasma"
    INDEX 01 08:11:06
  TRACK 04 AUDIO
    TITLE "Try"
    PERFORMER "Phantasma"
    INDEX 01 12:36:20
  TRACK 05 AUDIO
    TITLE "Enter Dreamscape"
    PERFORMER "Phantasma"
    INDEX 01 17:16:11
  TRACK 06 AUDIO
    TITLE "Miserable Me"
    PERFORMER "Phantasma"
    INDEX 01 21:33:56
  TRACK 07 AUDIO
    TITLE "The Lotus And The Willow"
    PERFORMER "Phantasma"
    INDEX 01 26:12:43
  TRACK 08 AUDIO
    TITLE "Crimson Course"
    PERFORMER "Phantasma"
    INDEX 01 30:53:35
  TRACK 09 AUDIO
    TITLE "Carry Me Home"
    PERFORMER "Phantasma"
    INDEX 01 36:50:71
  TRACK 10 AUDIO
    TITLE "The Sound Of Fear"
    PERFORMER "Phantasma"
    INDEX 01 42:18:42
  TRACK 11 AUDIO
    TITLE "Novaturient"
    PERFORMER "Phantasma"
    INDEX 01 47:34:47
  TRACK 12 AUDIO
    TITLE "Let It Die"
    PERFORMER "Phantasma"
    INDEX 01 52:58:42
  TRACK 13 AUDIO
    TITLE "Symphony Of Light"
    PERFORMER "Phantasma"
    INDEX 00 58:48:40
    INDEX 01 58:49:36




Charlotte Wessels - Vocals (Delain)
Georg Neuhauser - Vocals (Serenity)
Oliver Philipps - Guitars, Keys, Vocals (Everon, Satyrian, Danse Macabre)
Tom S. Englund – Vocal (Evergrey)
Dennis Schunke – Vocal (Van Canto)
Chloe Lowery – Vocal (Transsiberian Orchestra, Chameleon)
Jason Gianni – Drums (Daredevil Squadron, Neal Morse Band, Transsiberian Orchestra)
Randy George - Bas Guitar(Neal Morse Band, Ajalon)
Tom Buchberger – Guitar (Ex-Serenity)


pb.wtf



Скачать Phantasma - The Deviant Hearts - 2015 через торрент http://i110.fastpic.ru/big/2019/0419/35/b56b7dfa4ec308ae774a66455d841335.png Скачать фильм Phantasma - The Deviant Hearts - 2015через торрент бесплантно в хорошем качестве Трэклист Incomplete (2:45) The Deviant Hearts (Give Us A Story) (5:26) Runaway Grey (4:25) Try (4:40) Enter ... 5 10 1
Торрент: Зарегистрирован [2019-04-19 12:05] · скачан: 14 раз
Статус: √ проверено
Размер: 443 MB
Как cкачать? Как скачать Phantasma - The Deviant Hearts - 2015 через торрент | qTorrent

28-11-2019 20:33  

Отключить всю рекламу на сайте

    Дорогой пользователь! Огромная просьба, поблагодарите релизера, оцените раздачу и оставьте свои комментарий, если Вы скачали Phantasma - The Deviant Hearts - 2015 через торрент бесплатно! Внесите свою лепту в развитие PiratBit!
    Комментировать посты могут только пользователи прошедшие не сложную регистрацию
    Показать сообщения:    

    Phantasma - The Deviant Hearts - 2015 через торрент
    Скачать бесплатно Phantasma - The Deviant Hearts - 2015
    Phantasma - The Deviant Hearts - 2015 скачать торрент
    Phantasma - The Deviant Hearts - 2015 смотреть онлайн
    Cкачать фильм Phantasma - The Deviant Hearts - 2015 бесплатно
    Phantasma - The Deviant Hearts - 2015 скачать торрент в хорошем качестве
    Phantasma - The Deviant Hearts - 2015 смотреть онлайн бесплатно в хорошем качестве


    Вы не можете начинать темы
    Вы не можете отвечать на сообщения
    Вы не можете редактировать свои сообщения
    Вы не можете удалять свои сообщения
    Вы не можете голосовать в опросах
    Вы не можете прикреплять файлы к сообщениям
    Вы можете скачивать файлы