Ссылка на приватное зеркало нашего сайта всего за 1$. Внимание количество ограничено!!!

2 сезон

iTunes

1 сезон

1

2 сезон

2 сезон

iTunes

1 сезон

RePack

30

Ultimate

ВАЖНО

ИГРА 18+

pack

RePack

MK11
pack

Забери бонус

RePack

jed

!!Акция!!

Alien_Rage

RePack

fifa19

RePack

Assassins Creed: Odyssey

RePack

NEED FOR SPEED™ PAYBACK

4 сезон

9 сезон

Бесстыжие 9 сезон

Все сериалы

все сериалы на PB.wtf

RePack

FAR CRY 5
  

Avantasia - Moonglow (Limited Edition, 2CD) - 2019/ FLAC/ image +.cue/ lossless/ Symphonic Power Metal pb.wtf

Avantasia - Moonglow через торрент pb.wtf

Размер: 992 MB | Добавлен: 1 год 7 мес. назад | Торрент скачан:20 раз
Скачать  

19-04-2019 12:07 Avantasia - Moonglow Скачать торрент  


Avantasia - Moonglow (Limited Edition, 2CD)


Год издания: 2019
Страна: Germany
Жанр: Symphonic Power Metal
Продолжительность: 02:17:33
Лейбл издания: Nuclear Blast GmbH
Страна-выпуска диска: EU
Номер по каталогу: NB 4531-4-1/NB 4531-4-2
Формат: FLAC
Битрейт аудио: Lossless
Тип рипа: image +.cue
Наличие сканов в содержимом раздачи: да


01. Ghost in the Moon (9:52)
02. Book of Shallows (5:01)
03. Moonglow (3:57)
04. The Raven Child (11:15)
05. Starlight (3:39)
06. Invincible (3:08)
07. Alchemy (7:29)
08. The Piper at the Gates of Dawn (7:21)
09. Lavender (4:31)
10. Requiem for a Dream (6:09)
11. Maniac (4:32)
12. Heart (Bonus Track) (3:49)

01. Ghost in the Moon (Instrumental Version) (9:52)
02. Book of Shallows (Instrumental Version) (5:01)
03. Moonglow (Instrumental Version) (3:57)
04. The Raven Child (Instrumental Version) (11:15)
05. Starlight (Instrumental Version) (3:39)
06. Invincible (Instrumental Version) (3:08)
07. Alchemy (Instrumental Version) (7:29)
08. The Piper at the Gates of Dawn (Instrumental Version) (7:21)
09. Lavender (Instrumental Version) (4:31)
10. Requiem for a Dream (Instrumental Version) (6:09)
11. Maniac (Instrumental Version) (4:27)

Код:

Exact Audio Copy V1.3 from 2. September 2016

EAC extraction logfile from 15. February 2019, 16:23

Avantasia / Moonglow CD 1

Used drive  : HP      DVD Writer 1170d   Adapter: 1  ID: 1

Read mode               : Secure
Utilize accurate stream : Yes
Defeat audio cache      : Yes
Make use of C2 pointers : No

Read offset correction                      : 6
Overread into Lead-In and Lead-Out          : No
Fill up missing offset samples with silence : Yes
Delete leading and trailing silent blocks   : No
Null samples used in CRC calculations       : Yes
Used interface                              : Native Win32 interface for Win NT & 2000

Used output format              : User Defined Encoder
Selected bitrate                : 1024 kBit/s
Quality                         : High
Add ID3 tag                     : No
Command line compressor         : C:\Program Files (x86)\Exact Audio Copy\Flac\flac.exe
Additional command line options : -V -8 -T "Date=%year%" -T "Genre=%genre%" %source%

TOC of the extracted CD

     Track |   Start  |  Length  | Start sector | End sector
    ---------------------------------------------------------
        1  |  0:00.00 |  9:52.32 |         0    |    44431
        2  |  9:52.32 |  5:00.66 |     44432    |    66997
        3  | 14:53.23 |  3:56.46 |     66998    |    84743
        4  | 18:49.69 | 11:15.24 |     84744    |   135392
        5  | 30:05.18 |  3:39.06 |    135393    |   151823
        6  | 33:44.24 |  3:07.55 |    151824    |   165903
        7  | 36:52.04 |  7:28.55 |    165904    |   199558
        8  | 44:20.59 |  7:21.20 |    199559    |   232653
        9  | 51:42.04 |  4:31.09 |    232654    |   252987
       10  | 56:13.13 |  6:09.24 |    252988    |   280686
       11  | 62:22.37 |  4:32.26 |    280687    |   301112
       12  | 66:54.63 |  3:49.01 |    301113    |   318288

Range status and errors

Selected range

     Filename C:\EAC\Avantasia - Moonglow CD 1.wav

     Peak level 98.9 %
     Extraction speed 6.3 X
     Range quality 100.0 %
     Test CRC B34C4498
     Copy CRC B34C4498
     Copy OK

No errors occurred

AccurateRip summary

Track  1  not present in database
Track  2  not present in database
Track  3  not present in database
Track  4  not present in database
Track  5  not present in database
Track  6  not present in database
Track  7  not present in database
Track  8  not present in database
Track  9  not present in database
Track 10  not present in database
Track 11  not present in database
Track 12  not present in database

None of the tracks are present in the AccurateRip database

End of status report

Код:

Exact Audio Copy V1.3 from 2. September 2016

EAC extraction logfile from 15. February 2019, 16:56

Avantasia / Moonglow CD 2

Used drive  : HP      DVD Writer 1170d   Adapter: 1  ID: 1

Read mode               : Secure
Utilize accurate stream : Yes
Defeat audio cache      : Yes
Make use of C2 pointers : No

Read offset correction                      : 6
Overread into Lead-In and Lead-Out          : No
Fill up missing offset samples with silence : Yes
Delete leading and trailing silent blocks   : No
Null samples used in CRC calculations       : Yes
Used interface                              : Native Win32 interface for Win NT & 2000

Used output format              : User Defined Encoder
Selected bitrate                : 1024 kBit/s
Quality                         : High
Add ID3 tag                     : No
Command line compressor         : C:\Program Files (x86)\Exact Audio Copy\Flac\flac.exe
Additional command line options : -V -8 -T "Date=%year%" -T "Genre=%genre%" %source%

TOC of the extracted CD

     Track |   Start  |  Length  | Start sector | End sector
    ---------------------------------------------------------
        1  |  0:00.00 |  9:52.32 |         0    |    44431
        2  |  9:52.32 |  5:00.66 |     44432    |    66997
        3  | 14:53.23 |  3:56.46 |     66998    |    84743
        4  | 18:49.69 | 11:15.24 |     84744    |   135392
        5  | 30:05.18 |  3:39.06 |    135393    |   151823
        6  | 33:44.24 |  3:07.55 |    151824    |   165903
        7  | 36:52.04 |  7:28.55 |    165904    |   199558
        8  | 44:20.59 |  7:21.20 |    199559    |   232653
        9  | 51:42.04 |  4:31.09 |    232654    |   252987
       10  | 56:13.13 |  6:09.24 |    252988    |   280686
       11  | 62:22.37 |  4:27.01 |    280687    |   300712

Range status and errors

Selected range

     Filename C:\EAC\Avantasia - Moonglow CD 2.wav

     Peak level 98.9 %
     Extraction speed 6.0 X
     Range quality 100.0 %
     Test CRC 6389072B
     Copy CRC 6389072B
     Copy OK

No errors occurred

AccurateRip summary

Track  1  not present in database
Track  2  not present in database
Track  3  not present in database
Track  4  not present in database
Track  5  not present in database
Track  6  not present in database
Track  7  not present in database
Track  8  not present in database
Track  9  not present in database
Track 10  not present in database
Track 11  not present in database

None of the tracks are present in the AccurateRip database

End of status report

Код:

REM DATE 2019
REM DISCID 9A10930C
REM COMMENT "ExactAudioCopy v1.3"
PERFORMER "Avantasia"
TITLE "Moonglow CD 1"
FILE "Avantasia - Moonglow CD 1.flac" WAVE
  TRACK 01 AUDIO
    TITLE "Ghost in the Moon"
    PERFORMER "Avantasia"
    INDEX 01 00:00:00
  TRACK 02 AUDIO
    TITLE "Book of Shallows"
    PERFORMER "Avantasia"
    INDEX 00 09:51:06
    INDEX 01 09:52:32
  TRACK 03 AUDIO
    TITLE "Moonglow"
    PERFORMER "Avantasia"
    INDEX 00 14:50:28
    INDEX 01 14:53:23
  TRACK 04 AUDIO
    TITLE "The Raven Child"
    PERFORMER "Avantasia"
    INDEX 00 18:48:00
    INDEX 01 18:49:69
  TRACK 05 AUDIO
    TITLE "Starlight"
    PERFORMER "Avantasia"
    INDEX 00 30:03:61
    INDEX 01 30:05:18
  TRACK 06 AUDIO
    TITLE "Invincible"
    PERFORMER "Avantasia"
    INDEX 00 33:41:49
    INDEX 01 33:44:24
  TRACK 07 AUDIO
    TITLE "Alchemy"
    PERFORMER "Avantasia"
    INDEX 01 36:52:04
  TRACK 08 AUDIO
    TITLE "The Piper at the Gates of Dawn"
    PERFORMER "Avantasia"
    INDEX 00 44:18:01
    INDEX 01 44:20:59
  TRACK 09 AUDIO
    TITLE "Lavender"
    PERFORMER "Avantasia"
    INDEX 00 51:39:70
    INDEX 01 51:42:04
  TRACK 10 AUDIO
    TITLE "Requiem for a Dream"
    PERFORMER "Avantasia"
    INDEX 00 56:09:47
    INDEX 01 56:13:13
  TRACK 11 AUDIO
    TITLE "Maniac"
    PERFORMER "Avantasia"
    INDEX 00 62:20:28
    INDEX 01 62:22:37
  TRACK 12 AUDIO
    TITLE "Heart (Bonus Track)"
    PERFORMER "Avantasia"
    INDEX 00 66:48:63
    INDEX 01 66:54:63

Код:

REM DATE 2019
REM DISCID 8F0FA90B
REM COMMENT "ExactAudioCopy v1.3"
PERFORMER "Avantasia"
TITLE "Moonglow CD 2"
FILE "Avantasia - Moonglow CD 2.flac" WAVE
  TRACK 01 AUDIO
    TITLE "Ghost in the Moon (Instrumental Version)"
    PERFORMER "Avantasia"
    INDEX 01 00:00:00
  TRACK 02 AUDIO
    TITLE "Book of Shallows (Instrumental Version)"
    PERFORMER "Avantasia"
    INDEX 00 09:51:06
    INDEX 01 09:52:32
  TRACK 03 AUDIO
    TITLE "Moonglow (Instrumental Version)"
    PERFORMER "Avantasia"
    INDEX 00 14:50:28
    INDEX 01 14:53:23
  TRACK 04 AUDIO
    TITLE "The Raven Child (Instrumental Version)"
    PERFORMER "Avantasia"
    INDEX 00 18:48:00
    INDEX 01 18:49:69
  TRACK 05 AUDIO
    TITLE "Starlight (Instrumental Version)"
    PERFORMER "Avantasia"
    INDEX 00 30:03:61
    INDEX 01 30:05:18
  TRACK 06 AUDIO
    TITLE "Invincible (Instrumental Version)"
    PERFORMER "Avantasia"
    INDEX 00 33:41:49
    INDEX 01 33:44:24
  TRACK 07 AUDIO
    TITLE "Alchemy (Instrumental Version)"
    PERFORMER "Avantasia"
    INDEX 01 36:52:04
  TRACK 08 AUDIO
    TITLE "The Piper at the Gates of Dawn (Instrumental Version)"
    PERFORMER "Avantasia"
    INDEX 00 44:18:01
    INDEX 01 44:20:59
  TRACK 09 AUDIO
    TITLE "Lavender (Instrumental Version)"
    PERFORMER "Avantasia"
    INDEX 00 51:39:70
    INDEX 01 51:42:04
  TRACK 10 AUDIO
    TITLE "Requiem for a Dream (Instrumental Version)"
    PERFORMER "Avantasia"
    INDEX 00 56:09:47
    INDEX 01 56:13:13
  TRACK 11 AUDIO
    TITLE "Maniac (Instrumental Version)"
    PERFORMER "Avantasia"
    INDEX 00 62:20:28
    INDEX 01 62:22:37






pb.wtf



Скачать Avantasia - Moonglow через торрент https://i110.fastpic.ru/big/2019/0418/f0/71c113efe181f5afe8f4f89ecb1ff4f0.png Скачать фильм Avantasia - Moonglow через торрент бесплантно в хорошем качестве ... 10 10 1
Торрент: Зарегистрирован [2019-04-19 12:07] · скачан: 20 раз
Статус: √ проверено
Размер: 992 MB
Как cкачать? Как скачать Avantasia - Moonglow через торрент | qTorrent

28-11-2019 20:33  

Отключить всю рекламу на сайте

    Дорогой пользователь! Огромная просьба, поблагодарите релизера, оцените раздачу и оставьте свои комментарий, если Вы скачали Avantasia - Moonglow через торрент бесплатно! Внесите свою лепту в развитие PiratBit!
    Комментировать посты могут только пользователи прошедшие не сложную регистрацию
    Показать сообщения:    

    Avantasia - Moonglow через торрент
    Скачать бесплатно Avantasia - Moonglow
    Avantasia - Moonglow скачать торрент
    Avantasia - Moonglow смотреть онлайн
    Cкачать фильм Avantasia - Moonglow бесплатно
    Avantasia - Moonglow скачать торрент в хорошем качестве
    Avantasia - Moonglow смотреть онлайн бесплатно в хорошем качестве


    Вы не можете начинать темы
    Вы не можете отвечать на сообщения
    Вы не можете редактировать свои сообщения
    Вы не можете удалять свои сообщения
    Вы не можете голосовать в опросах
    Вы не можете прикреплять файлы к сообщениям
    Вы можете скачивать файлы