Наша группа ВК в очередной раз забанена мы уходим в Телеграм, присоединяйтесь!!!

Лицензия

30

iTunes

Как приручить дракона 3

iTunes

1

1 сезон

Чернобыль

iTunes

Снегоуборщик

iTunes

Закатать в асфальт

8 сезон

Игра престолов

iTunes

Ральф против интернета Хит недели

ИГРА 18+

pack

ВАЖНО

!!Акция!!

Alien_RageХит недели

RePack

Resident Evil 21
pack

RePack

Metro:Exodus

!!Акция!!

Alien_Rage

RePack

fifa19

RePack

Assassins Creed: Odyssey

RePack

NEED FOR SPEED™ PAYBACK

3 сезон

9 сезон

Бесстыжие 9 сезон

Все сериалы

все сериалы на PB.wtf

RePack

FAR CRY 5
Ребята, катастрофически не хватает 2730р. для оплаты серверов за АПРЕЛЬ (всвязи с блокировками трафик упал в 3 раза), 1-2р., выручайте.
  

Белая камера / White Chamber (Пол Рашид) [2018, Фантастика, драма, WEB-DL 1080p] MVO [HDRezka Studio] pb.wtf

Белая камера через торрент pb.wtf

Раздают: 1 [ 0 KB/s ]
Размер: 4.82 GB | Добавлен: 1 мес. 2 д. назад | Торрент скачан:106 раз
Скачать  

19-04-2019 14:13 Белая камера Скачать торрент  

Белая камера / White Chamber Год выпуска: 2018
Страна: Великобритания
Жанр: Фантастика, драма
Продолжительность: 01:29:03
Перевод: Профессиональный (многоголосый) | HDRezka Studio
Субтитры: английские

Режиссер: Пол Рашид

rating

В ролях:

Шона Макдональд, Одед Фер, Амрита Ачария, Шэрон Моан, Николас Фэррел, Кэндис Нергаард, Адрианна Эдвардс, Лиза Рейнольдс

Описание:

События происходят в недалеком будущем в Великобритании. В охваченной гражданской войной стране произошла смена власти и было введено военное положение. Военные заняли ключевые посты и принялись жестко расправляться с оппозицией. Доктор Элль Кристлер приходит в себя в белой комнате, которая в скором времени становится камерой пыток. У сотрудницы секретной лаборатории есть важная информация, но женщина утверждает, что она ничего не знает, однако это не повод прекращать пытки, ведь ее мучения можно использовать для того, чтобы сломить другого пленника.

Качество: WEB-DL 1080p
Формат: MKV

Видео: MPEG-4 AVC, 6908 Кбит/с, 1920x816
Аудио#1: Русский: AC3, 2 ch, 192 Кбит/с - HDRezka Studio
Аудио#2: Английский: Е-AC3, 6 ch, 640 Кбит/с - Original
скриншот  скриншот  скриншот  скриншот  скриншот  

General
Unique ID : 258166098934754586954141423441078447719 (0xC238FB680C7BD8404B2CECAF574CEE67)
Complete name : G:White.Chamber.2018.WEB-DL.1080p.mkv
Format : Matroska
Format version : Version 4 / Version 2
File size : 4.82 GiB
Duration : 1 h 29 min
Overall bit rate : 7 742 kb/s
Encoded date : UTC 2019-04-19 11:46:50
Writing application : mkvmerge v20.0.0 ('I Am The Sun') 64-bit
Writing library : libebml v1.3.5 + libmatroska v1.4.8

Video
ID : 1
Format : AVC
Format/Info : Advanced Video Codec
Format profile : High@L4
Format settings : CABAC / 4 Ref Frames
Format settings, CABAC : Yes
Format settings, RefFrames : 4 frames
Codec ID : V_MPEG4/ISO/AVC
Duration : 1 h 29 min
Bit rate mode : Constant
Bit rate : 6 908 kb/s
Nominal bit rate : 10 000 kb/s
Width : 1 920 pixels
Height : 816 pixels
Display aspect ratio : 2.35:1
Frame rate mode : Constant
Frame rate : 23.976 (24000/1001) FPS
Color space : YUV
Chroma subsampling : 4:2:0
Bit depth : 8 bits
Scan type : Progressive
Bits/(Pixel*Frame) : 0.184
Stream size : 4.30 GiB (89%)
Language : English
Default : Yes
Forced : No
Color range : Limited
Color primaries : BT.709
Transfer characteristics : BT.709
Matrix coefficients : BT.709

Audio #1
ID : 2
Format : AC-3
Format/Info : Audio Coding 3
Codec ID : A_AC3
Duration : 1 h 29 min
Bit rate mode : Constant
Bit rate : 192 kb/s
Channel(s) : 2 channels
Channel positions : Front: L R
Sampling rate : 48.0 kHz
Frame rate : 31.250 FPS (1536 SPF)
Bit depth : 16 bits
Compression mode : Lossy
Stream size : 122 MiB (2%)
Title : MVO HDRezka Studio
Language : Russian
Service kind : Complete Main
Default : Yes
Forced : No

Audio #2
ID : 3
Format : E-AC-3
Format/Info : Enhanced Audio Coding 3
Codec ID : A_EAC3
Duration : 1 h 29 min
Bit rate mode : Constant
Bit rate : 640 kb/s
Channel(s) : 6 channels
Channel positions : Front: L C R, Side: L R, LFE
Sampling rate : 48.0 kHz
Frame rate : 187.500 FPS (256 SPF)
Compression mode : Lossy
Stream size : 408 MiB (8%)
Language : English
Service kind : Complete Main
Default : No
Forced : No

Text
ID : 4
Format : UTF-8
Codec ID : S_TEXT/UTF8
Codec ID/Info : UTF-8 Plain Text
Duration : 1 h 25 min
Bit rate : 45 b/s
Count of elements : 1007
Stream size : 28.3 KiB (0%)
Language : English
Default : No
Forced : No

pb.wtf



Скачать Белая камера через торрент https://d.radikal.ru/d23/1904/41/47e45c35a89e.png Скачать фильм Белая камера через торрент бесплантно в хорошем качестве Описание: События происходят в недалеком будущем в Великобритании. В охваченной гражданской войной стране произошла смена власти и было ... 7.6 10 7
Торрент: Зарегистрирован [2019-04-19 14:13] · скачан: 106 раз
Статус: T временная
Размер: 4.82 GB
Как cкачать? Как скачать Белая камера через торрент | qTorrent


>> Регистрируемся здесь <<






Отзывы и комментарии о схеме читаем и пишем здесь: ---> Отзывы и комментарии о схеме

Новые благодарочки в телеграм довольных пользователей:
скриншот   скриншот   скриншот   скриншот   скриншот
    Дорогой пользователь! Огромная просьба, поблагодарите релизера, оцените раздачу и оставьте свои комментарий, если Вы скачали Белая камера через торрент бесплатно! Внесите свою лепту в развитие PiratBit!
    Комментировать посты могут только пользователи прошедшие не сложную регистрацию
    Показать сообщения:    

    Белая камера через торрент
    Скачать бесплатно Белая камера
    Белая камера скачать торрент
    Белая камера смотреть онлайн
    Cкачать фильм Белая камера бесплатно
    Белая камера скачать торрент в хорошем качестве
    Белая камера смотреть онлайн бесплатно в хорошем качестве


    Вы не можете начинать темы
    Вы не можете отвечать на сообщения
    Вы не можете редактировать свои сообщения
    Вы не можете удалять свои сообщения
    Вы не можете голосовать в опросах
    Вы не можете прикреплять файлы к сообщениям
    Вы можете скачивать файлы