Ссылка на приватное зеркало нашего сайта всего за 1$. Внимание количество ограничено!!!

2 сезон

iTunes

1 сезон

1

iTunes

iTunes

iTunes

1 сезон

RePack

30

ИГРА 18+

pack

ВАЖНО

!!Акция!!

Alien_RageХит недели

RePack

MK11
pack

Забери бонус

RePack

jed

!!Акция!!

Alien_Rage

RePack

fifa19

RePack

Assassins Creed: Odyssey

RePack

NEED FOR SPEED™ PAYBACK

4 сезон

9 сезон

Бесстыжие 9 сезон

Все сериалы

все сериалы на PB.wtf

RePack

FAR CRY 5
  

В отражении тебя / Серии: 1-4 из 4 (Дмитрий Магонов) [2019, Мелодрама, SATRip] pb.wtf

В отражении тебя через торрент pb.wtf

Размер: 2.34 GB | Добавлен: 1 год 6 мес. назад | Торрент скачан:69 раз
Скачать  

19-04-2019 14:30 В отражении тебя Скачать торрент  

В отражении тебя Год выпуска: 2019
Страна: Россия
Жанр: Мелодрама
Продолжительность: ~ 00:48:00 серия
Субтитры: отсутствуют

Режиссер: Дмитрий Магонов

В ролях:

Светлана Смирнова-Марцинкевич, Андрей Фролов (II), Родион Галюченко, Любовь Руденк

Описание:

Со стороны жизнь Маши – образец счастливой семьи: муж-бизнесмен, сын, престижная работа. Но каждую ночь ей снятся кошмары о прошлом. Одна небольшая ложь в юности, казавшаяся лучшим выходом из трудной ситуации, заводит Машу в лабиринт обмана. Она живет в другом городе под чужим именем и не может сказать правду даже мужу. Счастье Маши оказывается под угрозой, когда она получает по почте письмо из прошлого – из города ее детства, в котором лежит только ее детская фотография... Кому известна ее самая страшная тайна? Маша едет на родину, чтобы найти ответ, а встречает там свою первую любовь – мужчину, к которому у нее еще остались чувства. Кого выберет Маша – мужа или первого возлюбленного? Кто таинственный отправитель письма? Сможет ли Маша победить прошлое и вернуть себе право быть самой собой? Качество: SATRip
Формат: AVI

Видео: XviD, ~ 1550 Кбит/с, 720x400
Аудио: MP3, 2 ch, 192 Кбит/с
скриншот  скриншот  скриншот  скриншот  

Общее
Полное имя : D:\V.otrazhenii.tebya.2019.XviD.SATRip.25Kuzmich\V.otrazhenii.tebya.(01.seriya.iz.04).XviD.SATRip.25Kuzmich.avi
Формат : AVI
Формат/Информация : Audio Video Interleave
Размер файла : 600 Мбайт
Продолжительность : 48 м. 52 с.
Общий поток : 1717 Кбит/сек
Программа кодирования : VirtualDubMod 1.5.10.3 | www.virtualdub-fr.org || (build 2550/release)
Библиотека кодирования : VirtualDubMod build 2550/release

Видео
Идентификатор : 0
Формат : MPEG-4 Visual
Профиль формата : Advanced Simple@L5
Параметр BVOP формата : 1
Параметр QPel формата : Нет
Параметр GMC формата : Без точки перехода
Параметр матрицы формата : Default (MPEG)
Идентификатор кодека : XVID
Идентификатор кодека/Подсказка : XviD
Продолжительность : 48 м. 52 с.
Битрейт : 1515 Кбит/сек
Ширина : 720 пикселей
Высота : 400 пикселей
Соотношение сторон : 16:9
Частота кадров : 25,000 кадров/сек
Цветовое пространство : YUV
Субдискретизация насыщенности : 4:2:0
Битовая глубина : 8 бит
Тип развёртки : Прогрессивная
Метод сжатия : С потерями
Бит/(Пиксели*Кадры) : 0.210
Размер потока : 529 Мбайт (88%)
Библиотека кодирования : XviD 73

Аудио
Идентификатор : 1
Формат : MPEG Audio
Версия формата : Version 1
Профиль формата : Layer 3
Режим : Joint stereo
Расширение режима : MS Stereo
Идентификатор кодека : 55
Идентификатор кодека/Подсказка : MP3
Продолжительность : 48 м. 52 с.
Вид битрейта : Постоянный
Битрейт : 192 Кбит/сек
Каналы : 2 канала
Частота : 48,0 КГц
Метод сжатия : С потерями
Размер потока : 67,1 Мбайт (11%)
Выравнивание : Соединение по промежуткам
Продолжительность промежутка : 40 мс. (1,00 видеокадр)
Время предзагрузки промежутка : 504 мс.
Библиотека кодирования : LAME3.99r
Настройки программы : -m j -V 4 -q 2 -lowpass 18.6 -b 192

pb.wtf



Скачать В отражении тебя через торрент https://d.radikal.ru/d40/1904/55/87ec39d3c30d.jpg Скачать фильм В отражении тебя через торрент бесплантно в хорошем качестве Описание: Со стороны жизнь Маши – образец счастливой семьи: муж-бизнесмен, сын, престижная работа. Но каждую ночь ей снятся кошмары о ... 9.6 10 5
Торрент: Зарегистрирован [2019-04-19 14:30] · скачан: 69 раз
Статус: √ проверено
Размер: 2.34 GB
Как cкачать? Как скачать В отражении тебя через торрент | qTorrent

28-11-2019 20:33  

Отключить всю рекламу на сайте

    Дорогой пользователь! Огромная просьба, поблагодарите релизера, оцените раздачу и оставьте свои комментарий, если Вы скачали В отражении тебя через торрент бесплатно! Внесите свою лепту в развитие PiratBit!
    Комментировать посты могут только пользователи прошедшие не сложную регистрацию
    Показать сообщения:    

    В отражении тебя через торрент
    Скачать бесплатно В отражении тебя
    В отражении тебя скачать торрент
    В отражении тебя смотреть онлайн
    Cкачать фильм В отражении тебя бесплатно
    В отражении тебя скачать торрент в хорошем качестве
    В отражении тебя смотреть онлайн бесплатно в хорошем качестве


    Вы не можете начинать темы
    Вы не можете отвечать на сообщения
    Вы не можете редактировать свои сообщения
    Вы не можете удалять свои сообщения
    Вы не можете голосовать в опросах
    Вы не можете прикреплять файлы к сообщениям
    Вы можете скачивать файлы