Наша группа ВК в очередной раз забанена мы уходим в Телеграм, присоединяйтесь!!!

Лицензия

30

iTunes

Как приручить дракона 3

iTunes

1

1 сезон

Чернобыль

iTunes

Снегоуборщик

iTunes

Закатать в асфальт

8 сезон

Игра престолов

iTunes

Ральф против интернета Хит недели

ИГРА 18+

pack

ВАЖНО

!!Акция!!

Alien_RageХит недели

RePack

Resident Evil 21
pack

RePack

Metro:Exodus

!!Акция!!

Alien_Rage

RePack

fifa19

RePack

Assassins Creed: Odyssey

RePack

NEED FOR SPEED™ PAYBACK

3 сезон

9 сезон

Бесстыжие 9 сезон

Все сериалы

все сериалы на PB.wtf

RePack

FAR CRY 5
Ребята, катастрофически не хватает 2730р. для оплаты серверов за АПРЕЛЬ (всвязи с блокировками трафик упал в 3 раза), 1-2р., выручайте.
  

Странник / Nomad (Алекс Алесси) [2017, мелодрама, комедия, WEB-DL 720p] MVO ["Синема УС"] pb.wtf

Странник через торрент pb.wtf

Размер: 3.34 GB | Добавлен: 1 мес. 2 д. назад | Торрент скачан:10 раз
Скачать  

19-04-2019 16:32 Странник Скачать торрент  

Странник / NomadГод выпуска: 2017
Страна: США
Жанр: мелодрама, комедия
Продолжительность: 01:24:39
Перевод: Любительский (многоголосый) | "Синема УС"
Субтитры: отсутствуют

Режиссер: Алекс Алесси

rating

В ролях: Алекс Алесси, Остин Гельфман, Сара Вебер

Описание: После десяти лет разлуки пара бывших влюбленных случайно встречается в парке. Они решают провести вечер вместе, вспомнить былые времена.

Качество: WEB-DL 720p
Формат: MKV

Видео: h.264,5 259 Кбит/с, 1280x720
Аудио#1: Русский, (AC3, 2 ch, 384 Кбит/с)
скриншот  скриншот  скриншот  

Общее
Уникальный идентификатор : 189003773335711981524734904585326856636 (0x8E30CD7B94ABD5ECB55DA2BB5B0689BC)
Полное имя : D:\Nomad.2018.P.WEB_DL.72Op.mkv
Формат : Matroska
Версия формата : Version 2
Размер файла : 3,34 Гбайт
Продолжительность : 1 ч. 24 м.
Режим общего битрейта : Переменный
Общий поток : 5645 Кбит/сек
Дата кодирования : UTC 2019-04-18 19:04:10
Программа кодирования : mkvmerge v8.3.0 ('Over the Horizon') 64bit
Библиотека кодирования : libebml v1.3.1 + libmatroska v1.4.2

Видео
Идентификатор : 1
Формат : AVC
Формат/Информация : Advanced Video Codec
Профиль формата : High@L4.1
Параметр CABAC формата : Да
Параметр RefFrames формата : 4 кадра
Идентификатор кодека : V_MPEG4/ISO/AVC
Продолжительность : 1 ч. 24 м.
Вид битрейта : Переменный
Битрейт : 5259 Кбит/сек
Максимальный битрейт : 6000 Кбит/сек
Ширина : 1280 пикселей
Высота : 720 пикселей
Соотношение сторон : 16:9
Режим частоты кадров : Постоянный
Частота кадров : 23,976 (24000/1001) кадра/сек
Стандарт вещания : Component
Цветовое пространство : YUV
Субдискретизация насыщенности : 4:2:0
Битовая глубина : 8 бит
Тип развёртки : Прогрессивная
Бит/(Пиксели*Кадры) : 0.233
Размер потока : 3,04 Гбайт (91%)
Default : Да
Forced : Нет
Цветовой диапазон : Limited
Основные цвета : BT.709
Характеристики трансфера : BT.709
Коэффициенты матрицы : BT.709

Аудио
Идентификатор : 2
Формат : AC-3
Формат/Информация : Audio Coding 3
Расширение режима : CM (complete main)
Параметр Endianness формата : Big
Идентификатор кодека : A_AC3
Продолжительность : 1 ч. 24 м.
Вид битрейта : Постоянный
Битрейт : 384 Кбит/сек
Каналы : 2 канала
Расположение каналов : Front: L R
Частота : 48,0 КГц
Частота кадров : 31,250 кадров/сек (1536 spf)
Метод сжатия : С потерями
Размер потока : 233 Мбайт (7%)
Default : Да
Forced : Нет

pb.wtf



Скачать Странник через торрент https://a.radikal.ru/a23/1904/ff/eb192a60b4b7.jpg Скачать фильм Странник через торрент бесплантно в хорошем качестве Описание: После десяти лет разлуки пара бывших влюбленных случайно встречается в парке. Они решают провести вечер вместе, вспомнить былые ... 10 10 2
Торрент: Зарегистрирован [2019-04-19 16:32] · скачан: 10 раз
Статус: T временная
Размер: 3.34 GB
Как cкачать? Как скачать Странник через торрент | qTorrent

% Раздел Тема Автор DL S | L
T Фильмы (мультфильмы) cо спонсором показа (Новинки AVI/MKV) [ 1.37 GB ] Странник / Nomad [2017 WEB-DLRip] MVO ["Синема УС"] bober100 Скачать
1 | 0


>> Регистрируемся здесь <<






Отзывы и комментарии о схеме читаем и пишем здесь: ---> Отзывы и комментарии о схеме

Новые благодарочки в телеграм довольных пользователей:
скриншот   скриншот   скриншот   скриншот   скриншот
    Дорогой пользователь! Огромная просьба, поблагодарите релизера, оцените раздачу и оставьте свои комментарий, если Вы скачали Странник через торрент бесплатно! Внесите свою лепту в развитие PiratBit!
    Комментировать посты могут только пользователи прошедшие не сложную регистрацию
    Показать сообщения:    

    Странник через торрент
    Скачать бесплатно Странник
    Странник скачать торрент
    Странник смотреть онлайн
    Cкачать фильм Странник бесплатно
    Странник скачать торрент в хорошем качестве
    Странник смотреть онлайн бесплатно в хорошем качестве


    Вы не можете начинать темы
    Вы не можете отвечать на сообщения
    Вы не можете редактировать свои сообщения
    Вы не можете удалять свои сообщения
    Вы не можете голосовать в опросах
    Вы не можете прикреплять файлы к сообщениям
    Вы можете скачивать файлы