Ссылка на приватное зеркало нашего сайта всего за 1$. Внимание количество ограничено!!!

2 сезон

iTunes

1 сезон

1

iTunes

iTunes

iTunes

1 сезон

RePack

30

ИГРА 18+

pack

ВАЖНО

!!Акция!!

Alien_RageХит недели

RePack

MK11
pack

Забери бонус

RePack

jed

!!Акция!!

Alien_Rage

RePack

fifa19

RePack

Assassins Creed: Odyssey

RePack

NEED FOR SPEED™ PAYBACK

4 сезон

9 сезон

Бесстыжие 9 сезон

Все сериалы

все сериалы на PB.wtf

RePack

FAR CRY 5
  

Зорге / Сезон: 1 / Серии: 1-12 из 12 (Сергей Гинзбург) [2019, Биография, драма, шпионский фильм, WEB-DL 1080p] pb.wtf

Зорге через торрент pb.wtf

Размер: 22.37 GB | Добавлен: 1 год 6 мес. назад | Торрент скачан:55 раз
Скачать  

19-04-2019 18:26 Зорге Скачать торрент  

Зорге
Год выпуска: 2019
Страна: Россия, Китай, Украина
Жанр: Биография, драма, шпионский фильм
Продолжительность: ~ 00:50:00 серия
Перевод: Не требуется
Субтитры: отсутствуют

Режиссер: Сергей Гинзбург




В ролях:

Александр Домогаров, Виктория Исакова, Сергей Гинзбург, Андрей Леонов, Юлия Ауг, Анатолий Дзиваев, Сергей Багиров, Василий Мищенко, Андрей Руденский, Кирилл Кузнецов, Анна Бачалова, Александр Никольский (II), Евгения Бордзиловская, Сергей Бызгу, Игорь Фурманюк, Роман Индык, Анатолий Котенёв, Александр Орав, Павел Капитонов, Александр Зуев, Иван Шибанов, Татьяна Космачёва, Анастасия Цой, Гэ Ян, Дин Фан, Джунсуке Киносита, Шион Накамару, Осаму Ямамото, Мария Ахметзянова, Юрий Лахин, Николай Юшкевич, Роман Хан

Описание:

Фильм о жизни и работе советского разведчика Рихарда Зорге в Японии накануне и во время второй мировой войны в Японии. Работая корреспондентом влиятельной немецкой газеты в Токио, он имел доступ к ценнейшей информации в кругах немецких дипломатов. Его блестящее умение общаться с людьми давало возможность получать секретную военную информацию.

Качество: WEB-DL 1080p
Формат: MKV

Видео: 1920х1080 (16:9), 25 fps, AVC MPEG-4 (x264), High@L4 ~ 5100 kbps avg, 0.099 bit/pixel
Аудио: 48 kHz, АС3, 2/0 (L,R), ~192.00 kbps avg
скриншот  скриншот  скриншот  скриншот  

Общее
Уникальный идентификатор : 192734484084879552391540051865235372705 (0x90FF4FB951EE6E83883C3ED105603AA1)
Полное имя : C:\Zorge.2019.WEB-DL.(1080p).ExKinoRay\Zorge.(01.seriya).2019.WEB-DL.(1080p).ExKinoRay.mkv
Формат : Matroska
Версия формата : Version 4
Размер файла : 1,88 Гбайт
Продолжительность : 50 м. 35 с.
Общий поток : 5311 Кбит/сек
Дата кодирования : UTC 2019-04-10 15:38:26
Программа кодирования : mkvmerge v7.8.0 ('River Man') 32bit built on Mar 27 2015 16:18:02
Библиотека кодирования : libebml v1.3.1 + libmatroska v1.4.2

Видео
Идентификатор : 1
Формат : AVC
Формат/Информация : Advanced Video Codec
Профиль формата : High@L4
Настройки формата : CABAC / 4 Ref Frames
Параметр CABAC формата : Да
Параметр RefFrames формата : 4 кадра
Идентификатор кодека : V_MPEG4/ISO/AVC
Продолжительность : 50 м. 35 с.
Битрейт : 5100 Кбит/сек
Ширина : 1920 пикселей
Высота : 1080 пикселей
Соотношение сторон : 16:9
Режим частоты кадров : Постоянный
Частота кадров : 25,000 кадров/сек
Цветовое пространство : YUV
Субдискретизация насыщенности : 4:2:0
Битовая глубина : 8 бит
Тип развёртки : Прогрессивная
Бит/(Пиксели*Кадры) : 0.099
Размер потока : 1,81 Гбайт (96%)
Default : Да
Forced : Нет

Аудио
Идентификатор : 2
Формат : AC-3
Формат/Информация : Audio Coding 3
Коммерческое название : Dolby Digital
Идентификатор кодека : A_AC3
Продолжительность : 50 м. 35 с.
Вид битрейта : Постоянный
Битрейт : 192 Кбит/сек
Каналы : 2 канала
Channel layout : L R
Частота : 48,0 КГц
Частота кадров : 31,250 кадров/сек (1536 SPF)
Битовая глубина : 16 бит
Метод сжатия : С потерями
Размер потока : 69,5 Мбайт (4%)
Язык : Russian
ServiceKind/String : Complete Main
Default : Да
Forced : Нет

pb.wtf



Скачать Зорге через торрент https://b.radikal.ru/b40/1904/6a/81444c90a5d5.jpg Скачать фильм Зорге через торрент бесплантно в хорошем качестве Описание: Фильм о жизни и работе советского разведчика Рихарда Зорге в Японии накануне и во время второй мировой войны в Японии. Работая ... 10 10 2
Торрент: Зарегистрирован [2019-04-19 18:26] · скачан: 55 раз
Статус: √ проверено
Размер: 22.37 GB
Как cкачать? Как скачать Зорге через торрент | qTorrent

% Раздел Тема Автор DL S | L
Наши сериалы [ 7.6 GB ] Зорге / Сезон: 1 / Серии: 1-12 из 12 [2019 Биография шпионский фильм WEB-DLRip] bober100 Скачать
1 | 0
Наши сериалы [ 9.09 GB ] Зорге / Сезон: 1 / Серии: 1-12 из 12 [2019 Биография шпионский фильм HDTVRip-AVC] bober100 Скачать
1 | 0
Наши сериалы [ 15.3 GB ] Зорге / Сезон: 1 / Серии: 1-12 из 12 [2019 Биография шпионский фильм HDTVRip 720p] bober100 Скачать
1 | 0
Наши сериалы [ 8.23 GB ] Зорге / Сезон: 1 / Серии: 1-12 из 12 [2019 Биография шпионский фильм HDTVRip] bober100 Скачать
1 | 0
Наши сериалы [ 27.12 GB ] Зорге / Сезон: 1 / Серии: 1-12 из 12 [2019 Биография шпионский фильм HDTV 1080i] bober100 Скачать
1 | 0
Наши сериалы [ 7.03 GB ] Зорге / Сезон: 1 / Серии: 1-12 из 12 [2019 Биография шпионский фильм SATRip] bober100 Скачать
1 | 0

28-11-2019 20:33  

Отключить всю рекламу на сайте

    Дорогой пользователь! Огромная просьба, поблагодарите релизера, оцените раздачу и оставьте свои комментарий, если Вы скачали Зорге через торрент бесплатно! Внесите свою лепту в развитие PiratBit!
    Комментировать посты могут только пользователи прошедшие не сложную регистрацию
    Показать сообщения:    

    Зорге через торрент
    Скачать бесплатно Зорге
    Зорге скачать торрент
    Зорге смотреть онлайн
    Cкачать фильм Зорге бесплатно
    Зорге скачать торрент в хорошем качестве
    Зорге смотреть онлайн бесплатно в хорошем качестве


    Вы не можете начинать темы
    Вы не можете отвечать на сообщения
    Вы не можете редактировать свои сообщения
    Вы не можете удалять свои сообщения
    Вы не можете голосовать в опросах
    Вы не можете прикреплять файлы к сообщениям
    Вы можете скачивать файлы