Мега распродажа FORZA HORIZON 4 ULTIMATE+ВСЕ DLC+ОНЛАЙН всего за 499р. 349 руб. (супер цена). Внимание количество ограничено!!!

iTunes

1+1

iTunes

мы

iTunes

1

1 сезон

Чернобыль

1 сезон

Ральф против интернета

Лицензия

ПШазам

8 сезон

Игра престолов

Лицензия

30
pack

ВАЖНО

!!Акция!!

Alien_RageХит недели

RePack

Resident Evil 21

ИГРА 18+

pack

RePack

Metro:Exodus

!!Акция!!

Alien_Rage

RePack

fifa19

RePack

Assassins Creed: Odyssey

RePack

NEED FOR SPEED™ PAYBACK

3 сезон

9 сезон

Бесстыжие 9 сезон

Все сериалы

все сериалы на PB.wtf

RePack

FAR CRY 5
Ребята, катастрофически не хватает 2730р. для оплаты серверов за ИЮНЬ (всвязи с блокировками трафик упал в 3 раза), 1-2р., выручайте.
  

Звездный путь 3: В поисках Спока / Star Trek III: The Search for Spock (Леонард Нимой) [1984, Фантастика, боевик, триллер, приключения, BDRip 1080p] MVO+2xAVO pb.wtf

Звездный путь 3: В поисках Спока через торрент pb.wtf

Размер: 9.2 GB | Добавлен: 3 мес. 4 д. назад | Торрент скачан:65 раз
Скачать  

19-04-2019 18:51 Звездный путь 3: В поисках Спока Скачать торрент  

Звездный путь 3: В поисках Спока / Star Trek III: The Search for Spock
Год выпуска: 1984
Страна: США
Жанр: Фантастика, боевик, триллер, приключения
Продолжительность: 01:45:14
Перевод: Профессиональный (многоголосый), Авторский
Субтитры: Русские, английские

Режиссер: Леонард Нимой

rating

В ролях:

Уильям Шэтнер, Леонард Нимой, ДеФорест Келли, Джеймс Дуэн, Уолтер Кениг, Джордж Такей, Нишелль Николс, Робин Кертис, Мерритт Бутрик, Фил Моррис, Скотт МакГиннис, Роберт Хукс, Карл Стивен, Вадия Потенза, Стефен Мэнли, Дж. Уоррен Дэвид, Пол Соренсен, Кэти Ширрифф, Кристофер Ллойд, Стивен Лиска

Описание:

Время действия : 2286 год (звездная дата: 8210.3). Поражение Хана и создание планеты Генезис стали очередным триумфом капитана Джеймса Т. Кирка; но для него эти победы больше не имеют значения. Кирк потерял одного из своих лучших друзей, Спока, который погиб, спасая «Энтерпрайз», и эта потеря невосполнима. Одновременно с этим Кирк близок к тому, чтобы потерять еще одного своего лучшего друга, Мак-Коя, который потерял рассудок. Неожиданный визит Зарека, отца Спока, проясняет ситуацию и дает Кирку надежду — Спок жив, и его разум в данный момент помещен в тело Мак-Коя. Чтобы помочь друзьям, Кирк угоняет свой корабль, к тому времени уже предназначенный на слом, и нарушает установленный Федерацией карантин на планете Генезис, на которой работает научная экспедиция во главе с его сыном Дэвидом. Но в это же время о существовании Генезиса узнают Клингоны, и их боевой корабль под управлением командира Крюге спешно направляется к планете Генезис. Их встреча неизбежна…

Качество: BDRip 1080p
Формат: MKV

Видео: MPEG-4 AVC, 9900 Kбит/с, 1920x816, 23.976 кадр/с
Аудио#1: Русский ( АС3, 2ch, 192 Кбит/с, 48.0 KHz) Профессиональный (многоголосый, закадровый) SDI Media
Аудио#2: Русский ( АС3, 6ch, 448 Кбит/с, 48.0 KHz) Авторский (одноголосый, закадровый) Ю.Живов
Аудио#3: Русский ( АС3, 6ch, 448 Кбит/с, 48.0 KHz) Авторский (одноголосый, закадровый) С.Визгунов
Аудио#4: Английский ( DTS, 6ch, 1509 Кбит/с, 48.0 KHz)
скриншот  скриншот  скриншот  скриншот  скриншот  

скриншот  скриншот  скриншот  скриншот  скриншот  

General
Unique ID : 172270744528298060884651791593691555809 (0x819A23778C0BBB09A39A9E10666227E1)
Complete name : Star.Trek.III.The.Search.For.Spock.1984.BDRip.1080p.mkv
Format : Matroska
Format version : Version 4 / Version 2
File size : 9.20 GiB
Duration : 1 h 45 min
Overall bit rate : 12.5 Mb/s
Encoded date : UTC 2019-04-04 16:04:44
Writing application : mkvmerge v7.1.0 ('Good Love') 64bit built on Jul 27 2014 13:06:55
Writing library : libebml v1.3.0 + libmatroska v1.4.1

Video
ID : 1
Format : AVC
Format/Info : Advanced Video Codec
Format profile : High@L4.1
Format settings, CABAC : Yes
Format settings, RefFrames : 5 frames
Codec ID : V_MPEG4/ISO/AVC
Duration : 1 h 45 min
Bit rate : 9 900 kb/s
Width : 1 920 pixels
Height : 816 pixels
Display aspect ratio : 2.35:1
Frame rate mode : Constant
Frame rate : 23.976 (24000/1001) FPS
Color space : YUV
Chroma subsampling : 4:2:0
Bit depth : 8 bits
Scan type : Progressive
Bits/(Pixel*Frame) : 0.264
Stream size : 7.27 GiB (79%)
Writing library : x264 core 148 r2638 7599210
Encoding settings : cabac=1 / ref=5 / deblock=1:-3:-3 / analyse=0x3:0x133 / me=umh / subme=10 / psy=1 / psy_rd=1.00:0.20 / mixed_ref=1 / me_range=48 / chroma_me=1 / trellis=2 / 8x8dct=1 / cqm=0 / deadzone=21,11 / fast_pskip=1 / chroma_qp_offset=-3 / threads=6 / lookahead_threads=1 / sliced_threads=0 / nr=0 / decimate=1 / interlaced=0 / bluray_compat=0 / constrained_intra=0 / bframes=10 / b_pyramid=2 / b_adapt=2 / b_bias=0 / direct=3 / weightb=1 / open_gop=0 / weightp=2 / keyint=250 / keyint_min=23 / scenecut=40 / intra_refresh=0 / rc_lookahead=60 / rc=2pass / mbtree=1 / bitrate=9900 / ratetol=1.0 / qcomp=0.60 / qpmin=0 / qpmax=69 / qpstep=4 / cplxblur=20.0 / qblur=0.5 / ip_ratio=1.40 / aq=1:1.00
Language : English
Default : Yes
Forced : No

Audio #1
ID : 2
Format : AC-3
Format/Info : Audio Coding 3
Mode : Dolby Digital
Format settings, Endianness : Big
Codec ID : A_AC3
Duration : 1 h 45 min
Bit rate mode : Constant
Bit rate : 192 kb/s
Channel(s) : 2 channels
Channel positions : Front: L R
Sampling rate : 48.0 kHz
Frame rate : 31.250 FPS (1536 SPF)
Bit depth : 16 bits
Compression mode : Lossy
Stream size : 145 MiB (2%)
Title : SDI Media
Language : Russian
Service kind : Complete Main
Default : Yes
Forced : No

Audio #2
ID : 3
Format : AC-3
Format/Info : Audio Coding 3
Format settings, Endianness : Big
Codec ID : A_AC3
Duration : 1 h 45 min
Bit rate mode : Constant
Bit rate : 448 kb/s
Channel(s) : 6 channels
Channel positions : Front: L C R, Side: L R, LFE
Sampling rate : 48.0 kHz
Frame rate : 31.250 FPS (1536 SPF)
Bit depth : 16 bits
Compression mode : Lossy
Stream size : 337 MiB (4%)
Title : Ю.Живов
Language : Russian
Service kind : Complete Main
Default : No
Forced : No

Audio #3
ID : 4
Format : AC-3
Format/Info : Audio Coding 3
Format settings, Endianness : Big
Codec ID : A_AC3
Duration : 1 h 45 min
Bit rate mode : Constant
Bit rate : 448 kb/s
Channel(s) : 6 channels
Channel positions : Front: L C R, Side: L R, LFE
Sampling rate : 48.0 kHz
Frame rate : 31.250 FPS (1536 SPF)
Bit depth : 16 bits
Compression mode : Lossy
Stream size : 337 MiB (4%)
Title : С.Визгунов
Language : Russian
Service kind : Complete Main
Default : No
Forced : No

Audio #4
ID : 5
Format : DTS
Format/Info : Digital Theater Systems
Mode : 16
Format settings, Endianness : Big
Codec ID : A_DTS
Duration : 1 h 45 min
Bit rate mode : Constant
Bit rate : 1 510 kb/s
Channel(s) : 6 channels
Channel positions : Front: L C R, Side: L R, LFE
Sampling rate : 48.0 kHz
Frame rate : 93.750 FPS (512 SPF)
Bit depth : 24 bits
Compression mode : Lossy
Stream size : 1.11 GiB (12%)
Language : English
Default : No
Forced : No

Text #1
ID : 6
Format : UTF-8
Codec ID : S_TEXT/UTF8
Codec ID/Info : UTF-8 Plain Text
Duration : 1 h 39 min
Bit rate : 87 b/s
Count of elements : 883
Stream size : 63.3 KiB (0%)
Language : Russian
Default : No
Forced : No

Text #2
ID : 7
Format : UTF-8
Codec ID : S_TEXT/UTF8
Codec ID/Info : UTF-8 Plain Text
Duration : 1 h 38 min
Bit rate : 46 b/s
Count of elements : 972
Stream size : 33.4 KiB (0%)
Language : English
Default : No
Forced : No

Text #3
ID : 8
Format : PGS
Muxing mode : zlib
Codec ID : S_HDMV/PGS
Codec ID/Info : Picture based subtitle format used on BDs/HD-DVDs
Duration : 1 h 38 min
Bit rate : 8 795 b/s
Count of elements : 1952
Stream size : 6.20 MiB (0%)
Language : English
Default : No
Forced : No

Text #4
ID : 9
Format : PGS
Muxing mode : zlib
Codec ID : S_HDMV/PGS
Codec ID/Info : Picture based subtitle format used on BDs/HD-DVDs
Duration : 1 h 38 min
Bit rate : 10.0 kb/s
Count of elements : 2250
Stream size : 7.09 MiB (0%)
Language : English
Default : No
Forced : No

Menu
00:00:00.000 : en:Chapter 1
00:11:06.290 : en:Chapter 2
00:22:36.897 : en:Chapter 3
00:31:33.725 : en:Chapter 4
00:41:09.091 : en:Chapter 5
00:47:22.965 : en:Chapter 6
00:56:09.741 : en:Chapter 7
01:11:08.430 : en:Chapter 8
01:16:25.581 : en:Chapter 9
01:26:20.300 : en:Chapter 10
01:39:36.679 : en:Chapter 11

pb.wtf



Скачать Звездный путь 3: В поисках Спока через торрент http://b.radikal.ru/b19/1904/5f/dc0bf5894380.jpg Скачать фильм Звездный путь 3: В поисках Спока через торрент бесплантно в хорошем качестве Описание: Время действия : 2286 год (звездная дата: 8210.3). Поражение Хана и создание планеты Генезис стали очередным триумфом капитана ... 10 10 6
Info! Серебряная раздача, засчитывается только 50% скачанного.
Торрент: Зарегистрирован [2019-04-19 18:51] · скачан: 65 раз
Статус: √ проверено
Размер: 9.2 GB
Как cкачать? Как скачать Звездный путь 3: В поисках Спока через торрент | qTorrent


>> Регистрируемся здесь <<






Отзывы и комментарии о схеме читаем и пишем здесь: ---> Отзывы и комментарии о схеме

Новые благодарочки в телеграм довольных пользователей:
скриншот   скриншот   скриншот   скриншот   скриншот
    Дорогой пользователь! Огромная просьба, поблагодарите релизера, оцените раздачу и оставьте свои комментарий, если Вы скачали Звездный путь 3: В поисках Спока через торрент бесплатно! Внесите свою лепту в развитие PiratBit!
    Комментировать посты могут только пользователи прошедшие не сложную регистрацию
    Показать сообщения:    

    Звездный путь 3: В поисках Спока через торрент
    Скачать бесплатно Звездный путь 3: В поисках Спока
    Звездный путь 3: В поисках Спока скачать торрент
    Звездный путь 3: В поисках Спока смотреть онлайн
    Cкачать фильм Звездный путь 3: В поисках Спока бесплатно
    Звездный путь 3: В поисках Спока скачать торрент в хорошем качестве
    Звездный путь 3: В поисках Спока смотреть онлайн бесплатно в хорошем качестве


    Вы не можете начинать темы
    Вы не можете отвечать на сообщения
    Вы не можете редактировать свои сообщения
    Вы не можете удалять свои сообщения
    Вы не можете голосовать в опросах
    Вы не можете прикреплять файлы к сообщениям
    Вы можете скачивать файлы