Достать ножи: Стеклянная луковица

MVO

Добыча

Дубляж

Уэнсдэй

1 сезон

Тор

Дубляж

13 клиническая

1 сезон

Жестокая ночь

MVO

Одни из нас

1 сезон

Deluxe

pack

Рекомендуем

30

Пиратка

ВАЖНО

ВАЖНО

Ghostwire

Пиратка

jed

RePack

nioh2

RePack

RDR2

RePack

NEED FOR SPEED™ PAYBACK

RePack

скачать торрент

Кинопоиск HD

Острые козырьки 6 сезон

6 сезон

FAR CRY 6

RePack

скачать торрент

Лицензия

скачать торрент

MVO

1

1 сезон

скачать торрент

1 сезон

скачать торрент

Лицензия

  

Игра престолов / Game of Thrones / Сезон: 8 / Серии: 1-6 из 6 (Дэвид Наттер, Алан Тейлор, Алекс Грейвз) [2019, Фэнтези, боевик, WEBRip 720p] MVO [HDRezka]

Игра престолов через торрент pb.wtf

Размер: 9.64 GB | Добавлен: 3 года 8 мес. назад | Торрент скачан:14 раз
Смотреть онлайн | Скачать | Поддержите нас   

19-04-2019 19:23 Игра престолов Скачать торрент  

Игра престолов | Game of Thrones Год выпуска: 2019
Страна: США, Великобритания
Жанр: Фэнтези, боевик, драма, мелодрама, приключения
Продолжительность: ~00:55:00
Перевод: Профессиональный (многоголосый закадровый) | HDRezka
Субтитры: Russian (Forced, надписи)

Режиссёр: Дэвид Наттер, Алан Тейлор, Алекс Грейвз

В ролях:

Питер Динклэйдж, Эмилия Кларк, Кит Харингтон, Лена Хиди, Мишель Фэйрли, Николай Костер-Валдау, Иэн Глен, Эйден Гиллен, Элфи Оуэн-Аллен, Мэйси Уильямс, Софи Тернер, Сибель Кекилли, Джеймс Космо, Стивен Диллэйн, Гетин Энтони, Гвендолин Кристи, Натали Дормер и др.

Описание:

К концу подходит время благоденствия, и лето, длившееся почти десятилетие, угасает. Вокруг средоточия власти Семи королевств, Железного трона, зреет заговор, и в это непростое время король решает искать поддержки у друга юности Эддарда Старка. В мире, где все — от короля до наёмника — рвутся к власти, плетут интриги и готовы вонзить нож в спину, есть место и благородству, состраданию и любви. Между тем, никто не замечает пробуждение тьмы из легенд далеко на Севере — и лишь Стена защищает живых к югу от неё.




Качество: WEBRip 720p
Формат: AVI

Видео: 1280x720, 16:9, 23.976 fps, ~2900 kb/s
Аудио: Russian, AC3, 48 kHz, 6 ch, 448 kbps
Настоятельно НЕ рекомендуем к просмотру зрителям, которым не нравится озвучка студии Kravec по заказу Amedia. Схождение голосов озвучания персонажей стремится к 90%

скриншот  скриншот  скриншот  скриншот  скриншот  

General

Complete name : Game.of.Thrones.S08.WEBRip.720p.rus.HDRezka.STUDIOGame.of.Thrones.S08E01.WEBRip.720p.5.1.rus.HDRezka.STUDIO.mkv

Format : Matroska

Format version : Version 4

File size : 1.25 GiB

Duration : 53 min 14 s

Overall bit rate mode : Variable

Overall bit rate : 3 368 kb/s

Encoded date : UTC 2019-04-18 23:28:01

Writing application : mkvmerge v28.2.0 ('The Awakening') 64-bit

Writing library : libebml v1.3.6 + libmatroska v1.4.9

Video

ID : 1

Format : AVC

Format/Info : Advanced Video Codec

Format profile : [email protected]

Format settings : CABAC / 1 Ref Frames

Format settings, CABAC : Yes

Format settings, RefFrames : 1 frame

Codec ID : V_MPEG4/ISO/AVC

Duration : 53 min 14 s

Bit rate mode : Variable

Bit rate : 2 919 kb/s

Width : 1 280 pixels

Height : 720 pixels

Display aspect ratio : 16:9

Frame rate mode : Constant

Frame rate : 23.976 (24000/1001) FPS

Color space : YUV

Chroma subsampling : 4:2:0

Bit depth : 8 bits

Scan type : Progressive

Bits/(Pixel*Frame) : 0.132

Stream size : 1.09 GiB (87%)

Default : Yes

Forced : No

Audio

ID : 2

Format : AC-3

Format/Info : Audio Coding 3

Commercial name : Dolby Digital

Codec ID : A_AC3

Duration : 53 min 14 s

Bit rate mode : Constant

Bit rate : 448 kb/s

Channel(s) : 6 channels

Channel layout : L R C LFE Ls Rs

Sampling rate : 48.0 kHz

Frame rate : 31.250 FPS (1536 SPF)

Bit depth : 16 bits

Compression mode : Lossy

Stream size : 171 MiB (13%)

Language : Russian

Service kind : Complete Main

Default : Yes

Forced : No

Text

ID : 3

Format : ASS

Codec ID : S_TEXT/ASS

Codec ID/Info : Advanced Sub Station Alpha

Duration : 46 s 750 ms

Bit rate : 35 b/s

Count of elements : 3

Compression mode : Lossless

Stream size : 210 Bytes (0%)

Language : Russian

Default : Yes

Forced : No

Когда раздача ведётся путём добавления новых серий, при каждом добавлении создётся новый торрент. Чтобы начать докачку новой серии, пользователям необходимо сделать следующее:
(1) остановить скачивание,
(2) удалить старый торрент у себя из клиента (старые серии удалять не надо),
(3) скачать новый торрент и запустить его у себя в клиенте вместо старого, при этом указать клиенту путь в старую папку, куда и должно происходить скачивание новых серий.
Ваш клиент при этом должен произвести хеширование (проверку) старой папки (если не производит сам - помогите ему сделать это), и будет докачивать только те серии, которых у вас ещё нет. Старые серии при этом не удаляются, а продолжают раздаваться!
Eсли вы уже удалили старые серии, то предотвратить повторную закачку старых серий можно, отжав галочку в соответсвующих местах при запуске нового торрента. По возможности, желательно не удалять старые серии как можно дольше, чтобы релизёр не столько продолжал раздавать старые серии, а смог сконцентрироваться на новых.




Скачать Игра престолов через торрент http://img16.lostpic.net/2019/04/17/af05fac7a42cfe7eb4df6b41face3a95.png Скачать, смотреть онлайн Игра престолов бесплантно в хорошем качестве Описание: К концу подходит время благоденствия, и лето, длившееся почти десятилетие, угасает. Вокруг средоточия власти Семи королевств, ... 9.9 10 14
Торрент: Зарегистрирован [2019-05-29 19:06] · скачан: 14 раз
Статус: √ проверено
Размер: 9.64 GB
Как cкачать? Как скачать Игра престолов через торрент | UTorrent

% Раздел Тема Автор DL S | L
Сборники и Сиквелы (48-60 fps) [ 60.77 GB ] Игра престолов / Game of Thrones | MVO | 1080p / 60 FPS, Dub, MVO, Original Tiberiumsun69 Скачать
1 | 0
Игра престолов [ 26.6 GB ] Игра престолов / Game of Thrones / Сезон: 8 / Серии: 1-6 из 6 | LostFilm | 1080p killermax2013 Скачать
1 | 0
Игра престолов [ 844 MB ] Игра престолов / Game of Thrones / Сезон: 8 / Серии: 1 из 6 | NewStudio | DLRip bober100 Скачать
1 | 0
Игра престолов [ 20.4 GB ] Игра престолов / Game of Thrones / Сезон: 8 / Серии: 1-6 из 6 | HDRezka Studio | 1080p bober100 Скачать
1 | 0
Игра престолов [ 6.68 GB ] Игра престолов / Game of Thrones / Сезон: 8 / Серии: 1-2 из 6 | MVO | 1080p bober100 Скачать
1 | 0
Игра престолов [ 330.99 GB ] Игра Престолов / Game Of Thrones / Cезон: 1 / Cерии: 1-10 из 10 | Лицензия BD EUR | 2160p bober100 Скачать
1 | 0
Сборники и Сиквелы (48-60 fps) [ 165.21 GB ] Игра престолов / Game of Thrones / Сезон: 1-3 | LostFilm | 1080p / 60 FPS Tiberiumsun69 Скачать
1 | 1

28-11-2019 20:33  


Отключить вcю реклaмy на сайте, в т.ч. и в плеере онлайн просмотра!

    Дорогой пользователь! Огромная просьба, поблагодарите релизера, оцените раздачу и оставьте свои комментарий, если Вы скачали Игра престолов через торрент бесплатно!!
    Комментировать посты могут только пользователи прошедшие не сложную регистрацию
    Показать сообщения:    


    Игра престолов через торрент
    Скачать бесплатно Игра престолов
    Игра престолов скачать торрент
    Игра престолов смотреть онлайн
    Cкачать фильм Игра престолов бесплатно
    Игра престолов скачать торрент в хорошем качестве
    Игра престолов смотреть онлайн бесплатно в хорошем качестве
    Вы не можете начинать темы
    Вы не можете отвечать на сообщения
    Вы не можете редактировать свои сообщения
    Вы не можете удалять свои сообщения
    Вы не можете голосовать в опросах
    Вы не можете прикреплять файлы к сообщениям
    Вы можете скачивать файлы
    Игра престолов / Game of Thrones / Сезон: 8 / Серии: 1-6 из 6 [2019, Фэнтези, боевик, WEBRip 720p] MVO [HDRezka] смотреть онлайн, скачать торрент picoco.icu