2 сезон

iTunes

1 сезон

1

iTunes

iTunes

iTunes

1 сезон

RePack

30

ИГРА 18+

pack

ВАЖНО

!!Акция!!

Alien_RageХит недели

RePack

MK11
pack

Забери бонус

RePack

jed

!!Акция!!

Alien_Rage

RePack

fifa19

RePack

Assassins Creed: Odyssey

RePack

NEED FOR SPEED™ PAYBACK

4 сезон

9 сезон

Бесстыжие 9 сезон

Все сериалы

все сериалы на PB.wtf

RePack

FAR CRY 5
  

Московские тайны. Графский парк / Серии: 1-2 из 2 (Антон Шарапов) [2019, Детективы, криминал, WEB-DLRip] pb.wtf

Московские тайны. Графский парк через торрент pb.wtf

Размер: 1.11 GB | Добавлен: 1 год 6 мес. назад | Торрент скачан:46 раз
Скачать  

20-04-2019 01:27 Московские тайны. Графский парк Скачать торрент  

Московские тайны. Графский паркГод выпуска: 2019
Страна: Россия
Жанр: Детективы, криминал
Продолжительность: ~ 00:45:00 серия
Субтитры: отсутствуют

Режиссер: Антон Шарапов



В ролях:

Анна Старшенбаум, Евгений Пронин, Светлана Тимофеева-Летуновская, Екатерина Семёнова (I), Владислав Ветров, Александр Робак, Алексей Лонгин, Александр Обласов

Описание:

Ранним утром на территории Останкинского парка обнаружено тело девушки. Кто-то разложил на траве тело, закинув ее руки за голову и привязав веревку к ноге. Девушка оказывается живой, но в коме. Настя Вяземская не успевает разгадать смысл этого извращенного ритуала, как в парке появляется новая жертва — мужчина, чудом оставшийся в живых. Над Останкино сгустились тучи. Кто придет сюда гулять и любоваться Шереметевской усадьбой, если здесь орудует опасный маньяк? Настя начинает догадываться, что преступник вдохновился легендами о жене графа, крепостной актрисе Жемчуговой. Но лишь разоблачив злодея, она понимает, что он был всего лишь марионеткой в чужих руках…

Качество: WEB-DLRip
Формат: AVI

Видео: XviD, 1600 Кбит/с, 720x400
Аудио: AC3, 2 ch, 192 Кбит/с
скриншот  скриншот  скриншот  скриншот  скриншот  

Общее
Полное имя : D:\Московские тайны. Графский парк . 2019.WEB-DLRip. Files-x\01. Московские тайны. Графский парк . 2019.WEB-DLRip. Files-x.avi
Формат : AVI
Формат/Информация : Audio Video Interleave
Размер файла : 571 Мбайт
Продолжительность : 44 м. 19 с.
Общий поток : 1802 Кбит/сек
Программа кодирования : VirtualDubMod 1.5.10.3 | www.virtualdub-fr.org || (build 2550/release)
Библиотека кодирования : VirtualDubMod build 2550/release

Видео
Идентификатор : 0
Формат : MPEG-4 Visual
Профиль формата : Advanced Simple@L5
Параметр BVOP формата : 1
Параметр QPel формата : Нет
Параметр GMC формата : Без точки перехода
Параметр матрицы формата : Выборочная
Идентификатор кодека : XVID
Идентификатор кодека/Подсказка : XviD
Продолжительность : 44 м. 19 с.
Битрейт : 1530 Кбит/сек
Ширина : 720 пикселей
Высота : 400 пикселей
Соотношение сторон : 16:9
Частота кадров : 25,000 кадров/сек
Цветовое пространство : YUV
Субдискретизация насыщенности : 4:2:0
Битовая глубина : 8 бит
Тип развёртки : Прогрессивная
Метод сжатия : С потерями
Бит/(Пиксели*Кадры) : 0.212
Размер потока : 485 Мбайт (85%)
Библиотека кодирования : XviD 73

Аудио
Идентификатор : 1
Формат : AC-3
Формат/Информация : Audio Coding 3
Расширение режима : CM (complete main)
Параметр Endianness формата : Big
Идентификатор кодека : 2000
Продолжительность : 44 м. 19 с.
Вид битрейта : Постоянный
Битрейт : 192 Кбит/сек
Каналы : 2 канала
Расположение каналов : Front: L R
Частота : 48,0 КГц
Частота кадров : 31,250 кадров/сек (1536 spf)
Метод сжатия : С потерями
Размер потока : 60,9 Мбайт (11%)
Выравнивание : Разделение по промежуткам

pb.wtf



Скачать Московские тайны. Графский парк через торрент http://lostpix.com/img/2019-04/19/stizy2bcf8ehlo61wps40a3my.jpg Скачать фильм Московские тайны. Графский парк через торрент бесплантно в хорошем качестве Описание: Ранним утром на территории Останкинского парка обнаружено тело девушки. Кто-то разложил на траве тело, закинув ее руки за голову ... 10 10 4
Торрент: Зарегистрирован [2019-04-20 01:27] · скачан: 46 раз
Статус: √ проверено
Размер: 1.11 GB
Как cкачать? Как скачать Московские тайны. Графский парк через торрент | qTorrent

% Раздел Тема Автор DL S | L
Наши сериалы [ 1.11 GB ] Московские тайны. Графский парк / Серии: 1-2 из 2 [2019 ы WEB-DLRip-AVC] bober100 Скачать
1 | 0
Наши сериалы [ 1.17 GB ] Московские тайны. Графский парк / Серии: 1-2 из 2 [2019 ы SATRip] bober100 Скачать
1 | 0
Наши сериалы [ 1.08 GB ] Московские тайны. Графский парк / Сезон-4 / Серии: 1-2 из 2 [2019 SATRip-AVC] aleksan55 Скачать
1 | 0

28-11-2019 20:33  

Отключить всю рекламу на сайте

    Дорогой пользователь! Огромная просьба, поблагодарите релизера, оцените раздачу и оставьте свои комментарий, если Вы скачали Московские тайны. Графский парк через торрент бесплатно! Внесите свою лепту в развитие PiratBit!
    Комментировать посты могут только пользователи прошедшие не сложную регистрацию
    Показать сообщения:    

    Московские тайны. Графский парк через торрент
    Скачать бесплатно Московские тайны. Графский парк
    Московские тайны. Графский парк скачать торрент
    Московские тайны. Графский парк смотреть онлайн
    Cкачать фильм Московские тайны. Графский парк бесплатно
    Московские тайны. Графский парк скачать торрент в хорошем качестве
    Московские тайны. Графский парк смотреть онлайн бесплатно в хорошем качестве


    Вы не можете начинать темы
    Вы не можете отвечать на сообщения
    Вы не можете редактировать свои сообщения
    Вы не можете удалять свои сообщения
    Вы не можете голосовать в опросах
    Вы не можете прикреплять файлы к сообщениям
    Вы можете скачивать файлы