Мега распродажа FORZA HORIZON 4 ULTIMATE+ВСЕ DLC+ОНЛАЙН всего за 499р. 349 руб. (супер цена). Внимание количество ограничено!!!

Лицензия

30

iTunes

мы

iTunes

1

1 сезон

Чернобыль

1 сезон

Ральф против интернета

MVO

Покемон. Детектив Пикачу

8 сезон

Игра престолов

iTunes

1+1

ИГРА 18+

pack

ВАЖНО

!!Акция!!

Alien_RageХит недели

RePack

Resident Evil 21
pack

RePack

Metro:Exodus

!!Акция!!

Alien_Rage

RePack

fifa19

RePack

Assassins Creed: Odyssey

RePack

NEED FOR SPEED™ PAYBACK

3 сезон

9 сезон

Бесстыжие 9 сезон

Все сериалы

все сериалы на PB.wtf

RePack

FAR CRY 5
Ребята, катастрофически не хватает 2730р. для оплаты серверов за МАЙ (всвязи с блокировками трафик упал в 3 раза), 1-2р., выручайте.
  

Дабл трабл (Эдуард Оганесян) [2015, комедия, WEB-DL 1080p] pb.wtf

Дабл трабл через торрент pb.wtf

Раздают: 1 [ 0 KB/s ]
Размер: 2.83 GB | Добавлен: 2 мес. 6 д. назад | Торрент скачан:61 раз
Скачать  

20-04-2019 06:04 Дабл трабл Скачать торрент  

Дабл трабл Год выпуска: 2015
Страна: Россия
Жанр: комедия
Продолжительность: 01:20:21
Субтитры: отсутствуют

Режиссер: Эдуард Оганесян

rating

В ролях:


Даниил Белых (Роман), Екатерина Варнава (Саша), Лера Куликова (Алена), Даниил Кузнец, Слава, Сергей Мезенцев, Владимир Тишко, Юлия Морозова, Лена Горностаева, Саймон


Описание:

Роман ведет холостяцкий образ жизни и свое шоу на радио. Как заправский психолог он раздает советы слушателям, приправляя их колкими шутками. Пока одна из них не оборачивается против него самого. На вопрос 20-летней Алены, ехать ли ей к отцу, Роман отвечает «Конечно! Я был бы рад». Он не знает, что в эфире — плод его случайной связи, а он сам в одночасье стал не только отцом, но и дедушкой Алениного сына. Новоиспеченные родственники погружают в ад беззаботного Романа и его девушку Сашу, светскую львицу и владелицу радиостанции. Не меньшее разочарование ждет и Алену. Только чудо сможет сделать их четверых одной семьей…

Качество: WEB-DL 1080p
Формат: MKV

Видео: 1918 x 806p (2,35:1) 24 fps, AVC Main@L4.0~ 4350 kbps, 0.117 bit/pixel
Аудио: AC-3, 6 канала, 48,0 КГц, ~384 kbps
скриншот  скриншот  скриншот  скриншот  

скриншот  скриншот  скриншот  скриншот  

Общее
Уникальный идентификатор : 225135588057579752181957205183828280923 (0xA95F897CAE5AEBE3AFBE9FB229F3465B)
Полное имя : D:\Dubl.Trouble.2015.O.WEB-DL.1080p.mkv
Формат : Matroska
Версия формата : Version 4 / Version 2
Размер файла : 2,83 Гбайт
Продолжительность : 1 ч. 23 м.
Общий поток : 4831 Кбит/сек
Дата кодирования : UTC 2015-08-15 08:09:02
Программа кодирования : mkvmerge v6.9.1 ('Blue Panther') 64bit built on Apr 18 2014 18:23:38
Библиотека кодирования : libebml v1.3.0 + libmatroska v1.4.1

Видео
Идентификатор : 1
Формат : AVC
Формат/Информация : Advanced Video Codec
Профиль формата : High@L4
Параметр CABAC формата : Да
Параметр RefFrames формата : 5 кадров
Идентификатор кодека : V_MPEG4/ISO/AVC
Продолжительность : 1 ч. 23 м.
Битрейт : 4350 Кбит/сек
Ширина : 1918 пикселей
Высота : 806 пикселей
Соотношение сторон : 2,40:1
Режим частоты кадров : Постоянный
Частота кадров : 24,000 кадра/сек
Цветовое пространство : YUV
Субдискретизация насыщенности : 4:2:0
Битовая глубина : 8 бит
Тип развёртки : Прогрессивная
Бит/(Пиксели*Кадры) : 0.117
Размер потока : 2,55 Гбайт (90%)
Язык : English
Default : Да
Forced : Нет
Цветовой диапазон : Limited
Основные цвета : BT.709
Характеристики трансфера : BT.709
Коэффициенты матрицы : BT.709

Аудио
Идентификатор : 2
Формат : AC-3
Формат/Информация : Audio Coding 3
Расширение режима : CM (complete main)
Параметр Endianness формата : Big
Идентификатор кодека : A_AC3
Продолжительность : 1 ч. 23 м.
Вид битрейта : Постоянный
Битрейт : 384 Кбит/сек
Каналы : 6 каналов
Расположение каналов : Front: L C R, Side: L R, LFE
Частота : 48,0 КГц
Частота кадров : 31,250 кадров/сек (1536 spf)
Метод сжатия : С потерями
Размер потока : 230 Мбайт (8%)
Язык : Russian
Default : Да
Forced : Нет

Меню
00:00:00.000 : en:глава 1
00:04:26.000 : en:глава 2
00:09:48.000 : en:глава 3
00:15:58.000 : en:глава 4
00:19:37.000 : en:глава 5
00:27:03.000 : en:глава 6
00:30:57.000 : en:глава 7
00:37:24.000 : en:глава 8
00:43:00.000 : en:глава 9
00:47:37.000 : en:глава 10
00:52:40.000 : en:глава 11
00:57:54.000 : en:глава 12
01:02:45.000 : en:глава 13
01:09:28.000 : en:глава 14
01:14:28.000 : en:глава 15
01:19:51.000 : en:глава 16

pb.wtf



Скачать Дабл трабл через торрент http://s015.radikal.ru/i332/1508/ba/e82a43b86c73.png Скачать фильм Дабл трабл через торрент бесплантно в хорошем качестве Описание: Роман ведет холостяцкий образ жизни и свое шоу на радио. Как заправский психолог он раздает советы слушателям, приправляя их ... 6.8 10 9
Торрент: Зарегистрирован [2019-04-20 06:08] · скачан: 61 раз
Статус: √ проверено
Размер: 2.83 GB
Как cкачать? Как скачать Дабл трабл через торрент | qTorrent

% Раздел Тема Автор DL S | L
Наши новые фильмы 2015 [ 745 MB ] Дабл трабл [2015 DVDRip ] [] Ворон Скачать
1 | 0
Наши новые фильмы 2015 [ 1.37 GB ] Дабл трабл [2015 DVDRip ] Ворон Скачать
1 | 0
Наши новые фильмы 2015 [ 1.37 GB ] Дабл трабл [2015 WEBRip] ninla Скачать
1 | 0


>> Регистрируемся здесь <<






Отзывы и комментарии о схеме читаем и пишем здесь: ---> Отзывы и комментарии о схеме

Новые благодарочки в телеграм довольных пользователей:
скриншот   скриншот   скриншот   скриншот   скриншот
    Дорогой пользователь! Огромная просьба, поблагодарите релизера, оцените раздачу и оставьте свои комментарий, если Вы скачали Дабл трабл через торрент бесплатно! Внесите свою лепту в развитие PiratBit!
    Комментировать посты могут только пользователи прошедшие не сложную регистрацию
    Показать сообщения:    

    Дабл трабл через торрент
    Скачать бесплатно Дабл трабл
    Дабл трабл скачать торрент
    Дабл трабл смотреть онлайн
    Cкачать фильм Дабл трабл бесплатно
    Дабл трабл скачать торрент в хорошем качестве
    Дабл трабл смотреть онлайн бесплатно в хорошем качестве


    Вы не можете начинать темы
    Вы не можете отвечать на сообщения
    Вы не можете редактировать свои сообщения
    Вы не можете удалять свои сообщения
    Вы не можете голосовать в опросах
    Вы не можете прикреплять файлы к сообщениям
    Вы можете скачивать файлы