новый адрес пиратбит piratbit
Мега распродажа FORZA HORIZON 4 ULTIMATE+ВСЕ DLC+ОНЛАЙН всего за 499р. 349 руб. (супер цена). Внимание количество ограничено!!!

iTunes

1+1

iTunes

мы

iTunes

1

iTunes

Чернобыль

iTunes

Ральф против интернета

Лицензия

ПШазам

Лицензия

Игра престолов

Лицензия

30
pack

ВАЖНО

!!Акция!!

Alien_RageХит недели

RePack

Resident Evil 21

ИГРА 18+

pack

RePack

Metro:Exodus

!!Акция!!

Alien_Rage

RePack

fifa19

RePack

Assassins Creed: Odyssey

RePack

NEED FOR SPEED™ PAYBACK

3 сезон

9 сезон

Бесстыжие 9 сезон

Все сериалы

все сериалы на PB.wtf

RePack

FAR CRY 5
Ребята, катастрофически не хватает 1900р. для оплаты серверов за Октябрь (всвязи с блокировками трафик упал в 3 раза), 1-2р., выручайте.
  

Когда разводят мосты (Виктор Соколов) [1963, СССР, драма, SATRip от AVP Studio] pb.wtf

Когда разводят мосты через торрент pb.wtf

Размер: 744 MB | Добавлен: 6 мес. назад | Торрент скачан:5 раз
Скачать  

20-04-2019 08:30 Когда разводят мосты Скачать торрент  

Когда разводят мосты
Страна: СССР
Производство: Ленфильм

Жанр: драма
Год выпуска: 1963
Продолжительность: 01:33:03

Перевод: Не требуется
Cубтитры: нет
Оригинальная аудиодорожка: русский

Режиссер: Виктор Соколов

В ролях:
Владимир Колокольцев, Владимир Емельянов, Валентина Беляева, Ия Арепина, Людмила Ковалёва, Юрий Хазов, Леонид Быков, Евгений Кудряшёв, А. Тарасенков...
Об актёрах подробней

Описание:
Напряженно и долго искал Валерий повод для подвига. Семнадцать лет скучновато прожитой жизни сформировали у юноши пренебрежительную походку в знак протеста к бессобытийному миру. Но пришли обыкновенные житейские трудности, вслед за которыми появилась и ответственность за принятие решений. И оказалось, что будни - это не просто прожитые дни. Это и есть настоящая жизнь.

Исходник: DVB
Качество видео: SATRip
Формат видео: AVI

Видео: 688x352 (1,955:1), 25,000 кадров/сек, XviD ~ 916 kbps avg, 0.151 bit/pixel
Аудио: 48 kHz, Dolby Digital AC3 2.0, 192 kbps

Раздача от:
Общее
Полное имя : Kogda.razvodyat.mosty.1963.SATRip_[New-team]_by_AVP_Studio.avi
Формат : AVI
Формат/Информация : Audio Video Interleave
Размер файла : 744 Мбайт
Продолжительность : 1 ч. 33 м.
Общий поток : 1117 Кбит/сек
Программа кодирования : VirtualDubMod 1.5.10.3 | www.virtualdub-fr.org || (build 2550/release)
Библиотека кодирования : VirtualDubMod build 2550/release

Видео
Идентификатор : 0
Формат : MPEG-4 Visual
Профиль формата : Advanced Simple@L5
Настройки формата : BVOP1 / Custom Matrix
Параметр BVOP формата : 1
Параметр QPel формата : Нет
Параметр GMC формата : Без точки перехода
Параметр матрицы формата : Выборочная
Идентификатор кодека : XVID
Идентификатор кодека/Подсказка : XviD
Продолжительность : 1 ч. 33 м.
Битрейт : 916 Кбит/сек
Ширина : 688 пикселей
Высота : 352 пикселя
Соотношение сторон : 1,955
Частота кадров : 25,000 кадров/сек
Цветовое пространство : YUV
Субдискретизация насыщенности : 4:2:0
Битовая глубина : 8 бит
Тип развёртки : Прогрессивная
Метод сжатия : С потерями
Бит/(Пиксели*Кадры) : 0.151
Размер потока : 609 Мбайт (82%)
Библиотека кодирования : XviD 73

Аудио
Идентификатор : 1
Формат : AC-3
Формат/Информация : Audio Coding 3
Коммерческое название : Dolby Digital
Идентификатор кодека : 2000
Продолжительность : 1 ч. 33 м.
Вид битрейта : Постоянный
Битрейт : 192 Кбит/сек
Каналы : 2 канала
Channel layout : L R
Частота : 48,0 КГц
Частота кадров : 31,250 кадров/сек (1536 SPF)
Битовая глубина : 16 бит
Метод сжатия : С потерями
Размер потока : 128 Мбайт (17%)
Выравнивание : Разделение по промежуткам
Продолжительность промежутка : 40 мс. (1,00 видеокадр)
Время предзагрузки промежутка : 500 м
pb.wtf



Скачать Когда разводят мосты через торрент http://picplus.ru/img/1904/19/a72708e6.png Скачать фильм Когда разводят мосты через торрент бесплантно в хорошем качестве Описание:Напряженно и долго искал Валерий повод для подвига. Семнадцать лет скучновато прожитой жизни сформировали у юноши ... 5 10 1
Торрент: Зарегистрирован [2019-04-20 08:30] · скачан: 5 раз
Статус: √ проверено
Размер: 744 MB
Как cкачать? Как скачать Когда разводят мосты через торрент | qTorrent

% Раздел Тема Автор DL S | L
Кино СССР [ 744 MB ] Когда разводят мосты [1963 СССР SATRip от AVP Studio-AVC] AVP Studio Скачать
1 | 0


>> Регистрируемся здесь <<






Отзывы и комментарии о схеме читаем и пишем здесь: ---> Отзывы и комментарии о схеме

Новые благодарочки в телеграм довольных пользователей:
скриншот   скриншот   скриншот   скриншот   скриншот
    Дорогой пользователь! Огромная просьба, поблагодарите релизера, оцените раздачу и оставьте свои комментарий, если Вы скачали Когда разводят мосты через торрент бесплатно! Внесите свою лепту в развитие PiratBit!
    Комментировать посты могут только пользователи прошедшие не сложную регистрацию
    Показать сообщения:    

    Когда разводят мосты через торрент
    Скачать бесплатно Когда разводят мосты
    Когда разводят мосты скачать торрент
    Когда разводят мосты смотреть онлайн
    Cкачать фильм Когда разводят мосты бесплатно
    Когда разводят мосты скачать торрент в хорошем качестве
    Когда разводят мосты смотреть онлайн бесплатно в хорошем качестве


    Вы не можете начинать темы
    Вы не можете отвечать на сообщения
    Вы не можете редактировать свои сообщения
    Вы не можете удалять свои сообщения
    Вы не можете голосовать в опросах
    Вы не можете прикреплять файлы к сообщениям
    Вы можете скачивать файлы