MEGA SALE -50% FORZA HORIZON 4 ULTIMATE+ВСЕ DLC+ОНЛАЙН всего за 599р. 299 руб. (супер цена). Внимание количество ограничено!!!

iTunes

1+1

iTunes

мы

iTunes

1

iTunes

Чернобыль

1 сезон

Ральф против интернета

Лицензия

ПШазам

Лицензия

Игра престолов

Лицензия

30
pack

ВАЖНО

!!Акция!!

Alien_RageХит недели

RePack

Resident Evil 21

ИГРА 18+

pack

RePack

Metro:Exodus

!!Акция!!

Alien_Rage

RePack

fifa19

RePack

Assassins Creed: Odyssey

RePack

NEED FOR SPEED™ PAYBACK

3 сезон

9 сезон

Бесстыжие 9 сезон

Все сериалы

все сериалы на PB.wtf

RePack

FAR CRY 5
Ребята, катастрофически не хватает 7730р. для оплаты серверов за ИЮЛЬ (всвязи с блокировками трафик упал в 3 раза), 1-2р., выручайте.
  

Лулу / Loulou (Морис Пиала) [1980, драма, мелодрама, BDRip 1080p by msltel] DVO pb.wtf

Лулу через торрент pb.wtf

Размер: 13.48 GB | Добавлен: 4 мес. 1 д. назад | Торрент скачан:8 раз
Скачать  

20-04-2019 08:36 Лулу Скачать торрент  

Название: Лулу
Оригинальное название: Loulou
Год выпуска: 1980
Страна: Франция
Жанр: драма, мелодрама
Продолжительность: 01:45:11
Перевод: закадровый двухголосый

Режиссер: Морис Пиала
В ролях: Изабель Юппер, Жерар Депардьё, Ги Маршан, Фредерик Шербоннэ, Умбер Балсан, Жаклин Дюфрэнн, Вилли Сафар, Агнес Розье, Патриция Коле, Джеральд Гарнье, Ксавьер Сен-Макари

О фильме: Сюжет разворачивается вокруг молодой девушки Нелли, жены преуспевающего рекламщика. Внезапно в её жизнь врывается безработный хулиган Луи по прозвищу Лулу, и между молодыми людьми вспыхивает любовь. При этом Нелли не прекращает поддерживать отношения с мужем. Забеременев от Лулу, Нелли ждёт, когда тот начнёт работать ради неё и их будущего ребёнка, но в итоге понимает, что исправить Лулу ничего не сможет. Она принимает решение избавиться от ребёнка, что приводит к разрыву с Лулу... (Википедия).



Качество: BDRip 1080p
Формат: MKV
Видео: MPEG-4 AVC, 17.4 Mбит/с, 1792x1080
Аудио 1: русский, AC3, 192 kbps, 2 ch, 48 kHz [закадровый двухголосый]
Аудио 2: французский, DTS, 768 kbps, 1 ch, 48 kHz [оригинал]
Субтитры: английские
Главы/чаптеры
Общее
Уникальный идентификатор : 219129473034833817314676834810085665328 (0xA4DACD27577FFF4E966DA85D390E6A30)
Полное имя : D:\Video\Loulou.1980.BDRip 1080p by msltel.mkv
Формат : Matroska
Версия формата : Version 4
Размер файла : 13,5 Гбайт
Продолжительность : 1 ч. 45 м.
Общий поток : 18,3 Мбит/сек
Название фильма : Rip by msltel
Дата кодирования : UTC 2019-04-20 06:38:32
Программа кодирования : mkvmerge v8.2.0 ('World of Adventure') 64bit
Библиотека кодирования : libebml v1.3.1 + libmatroska v1.4.2

Видео
Идентификатор : 1
Формат : AVC
Формат/Информация : Advanced Video Codec
Профиль формата : High@L4.1
Настройки формата : CABAC / 4 Ref Frames
Параметр CABAC формата : Да
Параметр RefFrames формата : 4 кадра
Идентификатор кодека : V_MPEG4/ISO/AVC
Продолжительность : 1 ч. 45 м.
Битрейт : 17,4 Мбит/сек
Ширина : 1792 пикселя
Высота : 1080 пикселей
Соотношение сторон : 5:3
Режим частоты кадров : Постоянный
Частота кадров : 24,000 кадра/сек
Цветовое пространство : YUV
Субдискретизация насыщенности : 4:2:0
Битовая глубина : 8 бит
Тип развёртки : Прогрессивная
Бит/(Пиксели*Кадры) : 0.374
Размер потока : 12,8 Гбайт (95%)
Библиотека кодирования : x264 core 157 r2935 545de2f
Настройки программы : cabac=1 / ref=4 / deblock=1:-2:-2 / analyse=0x3:0x113 / me=umh / subme=11 / psy=1 / psy_rd=1.00:0.15 / mixed_ref=1 / me_range=32 / chroma_me=1 / trellis=2 / 8x8dct=1 / cqm=0 / deadzone=21,11 / fast_pskip=0 / chroma_qp_offset=-3 / threads=6 / lookahead_threads=1 / sliced_threads=0 / nr=0 / decimate=1 / interlaced=0 / bluray_compat=0 / constrained_intra=0 / bframes=10 / b_pyramid=2 / b_adapt=2 / b_bias=0 / direct=1 / weightb=1 / open_gop=0 / weightp=2 / keyint=230 / keyint_min=23 / scenecut=40 / intra_refresh=0 / rc_lookahead=40 / rc=crf / mbtree=1 / crf=15.8 / qcomp=0.60 / qpmin=0 / qpmax=69 / qpstep=4 / vbv_maxrate=50000 / vbv_bufsize=62500 / crf_max=0.0 / nal_hrd=none / filler=0 / ip_ratio=1.40 / aq=1:1.00
Язык : French
Default : Да
Forced : Нет

Аудио #1
Идентификатор : 2
Формат : AC-3
Формат/Информация : Audio Coding 3
Коммерческое название : Dolby Digital
Идентификатор кодека : A_AC3
Продолжительность : 1 ч. 45 м.
Вид битрейта : Постоянный
Битрейт : 192 Кбит/сек
Каналы : 2 канала
Channel layout : L R
Частота : 48,0 КГц
Частота кадров : 31,250 кадров/сек (1536 SPF)
Битовая глубина : 16 бит
Метод сжатия : С потерями
Размер потока : 144 Мбайт (1%)
Заголовок : DVO
Язык : Russian
ServiceKind/String : Complete Main
Default : Да
Forced : Нет

Аудио #2
Идентификатор : 3
Формат : DTS
Формат/Информация : Digital Theater Systems
Идентификатор кодека : A_DTS
Продолжительность : 1 ч. 45 м.
Вид битрейта : Постоянный
Битрейт : 768 Кбит/сек
Каналы : 1 канал
Channel layout : C
Частота : 48,0 КГц
Частота кадров : 93,750 кадра/сек (512 SPF)
Битовая глубина : 16 бит
Метод сжатия : С потерями
Размер потока : 578 Мбайт (4%)
Заголовок : original
Язык : French
Default : Нет
Forced : Нет

Текст
Идентификатор : 4
Формат : UTF-8
Идентификатор кодека : S_TEXT/UTF8
Идентификатор кодека/Информация : UTF-8 Plain Text
Продолжительность : 1 ч. 43 м.
Битрейт : 38 бит/сек
ElementCount : 1166
Размер потока : 29,6 Кбайт (0%)
Заголовок : английские
Язык : English
Default : Нет
Forced : Нет

Меню
00:00:00.000 : :Chapter 1
00:09:24.083 : :Chapter 2
00:20:02.625 : :Chapter 3
00:29:53.917 : :Chapter 4
00:39:30.792 : :Chapter 5
00:52:05.875 : :Chapter 6
01:01:01.000 : :Chapter 7
01:11:06.125 : :Chapter 8
01:14:38.750 : :Chapter 9
01:19:38.167 : :Chapter 10
01:27:58.667 : :Chapter 11
01:36:18.917 : :Chapter 12
pb.wtf



Скачать Лулу через торрент https://c.radikal.ru/c17/1904/3a/fa25851c61f1.jpg Скачать фильм Лулу через торрент бесплантно в хорошем качестве О фильме: Сюжет разворачивается вокруг молодой девушки Нелли, жены преуспевающего рекламщика. Внезапно в её жизнь врывается безработный ... 5 10 1
Торрент: Зарегистрирован [2019-04-20 08:36] · скачан: 8 раз
Статус: √ проверено
Размер: 13.48 GB
Как cкачать? Как скачать Лулу через торрент | qTorrent

% Раздел Тема Автор DL S | L
Классика зарубежного кино [ 5.26 GB ] Лулу / Loulou [1980 BDRip 720p by msltel] DVO msltel Скачать
1 | 0
Фильмы 2011 [ 1.37 GB ] Тухлое мясо / Bad Meat [ 2011 HDRip ] DVO [DeadSno & den904] Ворон Скачать
1 | 0


>> Регистрируемся здесь <<






Отзывы и комментарии о схеме читаем и пишем здесь: ---> Отзывы и комментарии о схеме

Новые благодарочки в телеграм довольных пользователей:
скриншот   скриншот   скриншот   скриншот   скриншот

26-04-2019 05:04 Лулу Скачать торрент  

Топик был перенесен из форума Фильмы [HD 720p, 1080p] (Звук Cam, VO, DVO) в форум Классика зарубежного кино


bober100pb.wtf



    Дорогой пользователь! Огромная просьба, поблагодарите релизера, оцените раздачу и оставьте свои комментарий, если Вы скачали Лулу через торрент бесплатно! Внесите свою лепту в развитие PiratBit!
    Комментировать посты могут только пользователи прошедшие не сложную регистрацию
    Показать сообщения:    

    Лулу через торрент
    Скачать бесплатно Лулу
    Лулу скачать торрент
    Лулу смотреть онлайн
    Cкачать фильм Лулу бесплатно
    Лулу скачать торрент в хорошем качестве
    Лулу смотреть онлайн бесплатно в хорошем качестве


    Вы не можете начинать темы
    Вы не можете отвечать на сообщения
    Вы не можете редактировать свои сообщения
    Вы не можете удалять свои сообщения
    Вы не можете голосовать в опросах
    Вы не можете прикреплять файлы к сообщениям
    Вы можете скачивать файлы