MEGA SALE -50% FORZA HORIZON 4 ULTIMATE+ВСЕ DLC+ОНЛАЙН всего за 599р. 299 руб. (супер цена). Внимание количество ограничено!!!

iTunes

1+1

iTunes

мы

iTunes

1

iTunes

Чернобыль

1 сезон

Ральф против интернета

Лицензия

ПШазам

Лицензия

Игра престолов

Лицензия

30
pack

ВАЖНО

!!Акция!!

Alien_RageХит недели

RePack

Resident Evil 21

ИГРА 18+

pack

RePack

Metro:Exodus

!!Акция!!

Alien_Rage

RePack

fifa19

RePack

Assassins Creed: Odyssey

RePack

NEED FOR SPEED™ PAYBACK

3 сезон

9 сезон

Бесстыжие 9 сезон

Все сериалы

все сериалы на PB.wtf

RePack

FAR CRY 5
Ребята, катастрофически не хватает 7730р. для оплаты серверов за ИЮЛЬ (всвязи с блокировками трафик упал в 3 раза), 1-2р., выручайте.
  

Путешествие в Ад / Tourist Trap (Дэвид Шмёллер) [1979, ужасы, BDRip 720p by msltel] DVO pb.wtf

Путешествие в Ад через торрент pb.wtf

Раздают: 1 [ 0 KB/s ]
Размер: 3.95 GB | Добавлен: 4 мес. 1 д. назад | Торрент скачан:41 раз
Скачать  

20-04-2019 09:33 Путешествие в Ад Скачать торрент  

Название: Путешествие в Ад
Оригинальное название: Tourist Trap
Год выпуска: 1979
Страна: США
Жанр: ужасы
Продолжительность: 01:25:02
Перевод: закадровый двухголосый

Режиссер: Дэвид Шмёллер
В ролях: Чак Коннорс, Жослин Джонс, Джон Ван Несс, Робин Шервуд, Таня Робертс, Доун Джеффори, Кит МакДермотт, Шайлар Коби, Арлеккино, Виктория Ришар

О фильме: Не все «ловушки для туристов», приманки из путеводителей, похожи друг на друга, как думали весёлые путешественники, исколесившие юг Америки. Они не знали, что «музей Слосена» станет для них настоящей ловушкой. Здесь, в живописном местечке в стороне от проезжей дороги, выходят из повиновения вещи, начиная жить своей, враждебной человеку, жизнью. Предметы оживают, а люди превращаются в манекены, послушные злой воле хозяина...



Качество: BDRip 720p
Формат: MKV
Видео: MPEG-4 AVC, 5753 Кбит/с, 1280x720, 23.976 кадр/с
Аудио 1: русский, AC3, 448 kbps, 4 ch, 48 kHz [закадровый двухголосый, СТС]
Аудио 2: английский, AC3, 448 kbps, 6 ch, 48 kHz [оригинал]
Главы/чаптеры
Общее
Уникальный идентификатор : 184696338761863658022790957796287578334 (0x8AF3388FC97BE3C28008660B50E400DE)
Полное имя : D:\Video\Путешествие в Ад.1979.BDRip 720p by msltel.mkv
Формат : Matroska
Версия формата : Version 4
Размер файла : 3,95 Гбайт
Продолжительность : 1 ч. 25 м.
Общий поток : 6651 Кбит/сек
Название фильма : Rip by msltel
Дата кодирования : UTC 2019-04-19 15:50:08
Программа кодирования : mkvmerge v8.2.0 ('World of Adventure') 64bit
Библиотека кодирования : libebml v1.3.1 + libmatroska v1.4.2

Видео
Идентификатор : 1
Формат : AVC
Формат/Информация : Advanced Video Codec
Профиль формата : High@L4.1
Настройки формата : CABAC / 9 Ref Frames
Параметр CABAC формата : Да
Параметр RefFrames формата : 9 кадров
Идентификатор кодека : V_MPEG4/ISO/AVC
Продолжительность : 1 ч. 25 м.
Битрейт : 5753 Кбит/сек
Ширина : 1280 пикселей
Высота : 720 пикселей
Соотношение сторон : 16:9
Режим частоты кадров : Постоянный
Частота кадров : 23,976 (24000/1001) кадра/сек
Цветовое пространство : YUV
Субдискретизация насыщенности : 4:2:0
Битовая глубина : 8 бит
Тип развёртки : Прогрессивная
Бит/(Пиксели*Кадры) : 0.260
Размер потока : 3,42 Гбайт (86%)
Библиотека кодирования : x264 core 157 r2935 545de2f
Настройки программы : cabac=1 / ref=9 / deblock=1:-2:-2 / analyse=0x3:0x113 / me=umh / subme=11 / psy=1 / psy_rd=1.00:0.15 / mixed_ref=1 / me_range=32 / chroma_me=1 / trellis=2 / 8x8dct=1 / cqm=0 / deadzone=21,11 / fast_pskip=0 / chroma_qp_offset=-3 / threads=6 / lookahead_threads=1 / sliced_threads=0 / nr=0 / decimate=1 / interlaced=0 / bluray_compat=0 / constrained_intra=0 / bframes=12 / b_pyramid=2 / b_adapt=2 / b_bias=0 / direct=1 / weightb=1 / open_gop=0 / weightp=2 / keyint=230 / keyint_min=23 / scenecut=40 / intra_refresh=0 / rc_lookahead=40 / rc=crf / mbtree=1 / crf=17.5 / qcomp=0.60 / qpmin=0 / qpmax=69 / qpstep=4 / vbv_maxrate=50000 / vbv_bufsize=62500 / crf_max=0.0 / nal_hrd=none / filler=0 / ip_ratio=1.40 / aq=1:1.00
Язык : English
Default : Да
Forced : Нет

Аудио #1
Идентификатор : 2
Формат : AC-3
Формат/Информация : Audio Coding 3
Коммерческое название : Dolby Digital
Идентификатор кодека : A_AC3
Продолжительность : 1 ч. 25 м.
Вид битрейта : Постоянный
Битрейт : 448 Кбит/сек
Каналы : 4 канала
Channel layout : L R C LFE
Частота : 48,0 КГц
Частота кадров : 31,250 кадров/сек (1536 SPF)
Битовая глубина : 16 бит
Метод сжатия : С потерями
Размер потока : 272 Мбайт (7%)
Заголовок : DVO CTC
Язык : Russian
ServiceKind/String : Complete Main
Default : Да
Forced : Нет

Аудио #2
Идентификатор : 3
Формат : AC-3
Формат/Информация : Audio Coding 3
Коммерческое название : Dolby Digital
Идентификатор кодека : A_AC3
Продолжительность : 1 ч. 25 м.
Вид битрейта : Постоянный
Битрейт : 448 Кбит/сек
Каналы : 6 каналов
Channel layout : L R C LFE Ls Rs
Частота : 48,0 КГц
Частота кадров : 31,250 кадров/сек (1536 SPF)
Битовая глубина : 16 бит
Метод сжатия : С потерями
Размер потока : 273 Мбайт (7%)
Заголовок : original
Язык : English
ServiceKind/String : Complete Main
Default : Нет
Forced : Нет

Меню
00:00:00.000 : :Chapter 1
00:09:20.059 : :Chapter 2
00:17:29.256 : :Chapter 3
00:28:58.653 : :Chapter 4
00:41:32.156 : :Chapter 5
00:55:46.384 : :Chapter 6
01:07:39.972 : :Chapter 7
01:18:35.167 : :Chapter 8
01:25:00.762 : :Chapter 9
pb.wtf



Скачать Путешествие в Ад через торрент https://d.radikal.ru/d04/1904/8b/b6e56b2bd088.jpg Скачать фильм Путешествие в Ад через торрент бесплантно в хорошем качестве О фильме: Не все «ловушки для туристов», приманки из путеводителей, похожи друг на друга, как думали весёлые путешественники, исколесившие ... 10 10 2
Торрент: Зарегистрирован [2019-04-20 09:33] · скачан: 41 раз
Статус: √ проверено
Размер: 3.95 GB
Как cкачать? Как скачать Путешествие в Ад через торрент | qTorrent

% Раздел Тема Автор DL S | L
Фильмы [HD 720p, 1080p] (Звук Cam, VO, DVO) [ 10.77 GB ] Путешествие в Ад / Tourist Trap [1979 BDRip 1080p by msltel] DVO msltel Скачать
1 | 0


>> Регистрируемся здесь <<






Отзывы и комментарии о схеме читаем и пишем здесь: ---> Отзывы и комментарии о схеме

Новые благодарочки в телеграм довольных пользователей:
скриншот   скриншот   скриншот   скриншот   скриншот

21-04-2019 08:28 Путешествие в Ад Скачать торрент  

Топик был перенесен из форума Фильмы [HD 720p, 1080p] (Хороший звук DUB, MVO) в форум Фильмы [HD 720p, 1080p] (Звук Cam, VO, DVO)


bober100pb.wtf



    Дорогой пользователь! Огромная просьба, поблагодарите релизера, оцените раздачу и оставьте свои комментарий, если Вы скачали Путешествие в Ад через торрент бесплатно! Внесите свою лепту в развитие PiratBit!
    Комментировать посты могут только пользователи прошедшие не сложную регистрацию
    Показать сообщения:    

    Путешествие в Ад через торрент
    Скачать бесплатно Путешествие в Ад
    Путешествие в Ад скачать торрент
    Путешествие в Ад смотреть онлайн
    Cкачать фильм Путешествие в Ад бесплатно
    Путешествие в Ад скачать торрент в хорошем качестве
    Путешествие в Ад смотреть онлайн бесплатно в хорошем качестве


    Вы не можете начинать темы
    Вы не можете отвечать на сообщения
    Вы не можете редактировать свои сообщения
    Вы не можете удалять свои сообщения
    Вы не можете голосовать в опросах
    Вы не можете прикреплять файлы к сообщениям
    Вы можете скачивать файлы