Наша группа ВК в очередной раз забанена мы уходим в Телеграм, присоединяйтесь!!!

Лицензия

30

iTunes

Как приручить дракона 3

iTunes

1

1 сезон

Чернобыль

iTunes

Снегоуборщик

iTunes

Закатать в асфальт

8 сезон

Игра престолов

iTunes

Ральф против интернета Хит недели

ИГРА 18+

pack

ВАЖНО

!!Акция!!

Alien_RageХит недели

RePack

Resident Evil 21
pack

RePack

Metro:Exodus

!!Акция!!

Alien_Rage

RePack

fifa19

RePack

Assassins Creed: Odyssey

RePack

NEED FOR SPEED™ PAYBACK

3 сезон

9 сезон

Бесстыжие 9 сезон

Все сериалы

все сериалы на PB.wtf

RePack

FAR CRY 5
Ребята, катастрофически не хватает 2730р. для оплаты серверов за АПРЕЛЬ (всвязи с блокировками трафик упал в 3 раза), 1-2р., выручайте.
  

Бездна / The Abyss (Джеймс Кэмерон) [1989 г., фантастика, триллер, драма, приключения, WEB-DL 1080p] 3xMVO, 3xAVO pb.wtf

Бездна через торрент pb.wtf

Раздают: 8 [ 53 KB/s ]
Размер: 12.76 GB | Добавлен: 1 мес. 1 д. назад | Торрент скачан:86 раз
Скачать  

20-04-2019 20:15 Бездна Скачать торрент  

Бездна / The Abyss
«Глубоко под водой есть место, о котором никто никогда не мечтал...» Год выпуска: 1989

Страна: США

Жанр: Фантастика, триллер, драма, приключения

Продолжительность: 02:20:21

Перевод: Профессиональный (многоголосый), авторский (одноголосый)

Субтитры: Русские, английские

Режиссер: Джеймс Кэмерон

rating

В ролях: Эд Харрис, Мэри Элизабет Мастрантонио, Майкл Бин, Лео Бёрместер, Тодд Графф, Джон Бедфорд Ллойд, Кимберли Скотт, Капитан Кидд Брюер мл., Джордж Роберт Клек, Кристофер Мерфи, Адам Нельсон, Дик Уорлок, Джимми Рэй Уикс, Кен Дженкинс, Крис Эллиотт, Питер Рэтрей, Майкл Бич, Брэд Салливан, Фрэнк Ллойд, Филлип Дарлингтон, Джозеф С. Немец, Джо Фараго, Уильям Уишер мл., Маркус К. Мукаи, Венди Гордон, Паула Кросс, Томас Ф. Даффи, Крис Анастасио, Эмили Янси, Майкл Чэпмен, Том Исбелл

Описание: Атомная подводная лодка «Монтана» ВМФ США с ядерным оружием на борту терпит крушение на огромной глубине. Министерство флота просит помощи у специалистов подводной исследовательской станции, работающей неподалеку от места аварии субмарины.При поддержке четырех военных разведчиков исследователи должны выяснить возможную причину трагедии и нейстрализовать ядерные боеголовки. Но в океанской бездне им предстоит столкнуться с неведомым...
Качество: WEB-DL 1080p

Формат: MKV
Видео кодек: MPEG-4 AVC
Аудио кодек: AC3
Видео: MPEG-4 AVC, 9.5 Мбит/с, 1920x1080, 23.976 Кадр/с
Аудио#1: Русский, AC3, 6 ch, 448 Кбит/с - MVO (R5)
Аудио#2: Русский, AC3, 6 ch, 448 Кбит/с - MVO (Киномания)
Аудио#3: Русский, AC3, 2 ch, 192 Кбит/с - MVO (НТВ)
Аудио#4: Русский, AC3, 6 ch, 448 Кбит/с - AVO (Ю.Живов)
Аудио#5: Русский, AC3, 6 ch, 448 Кбит/с - AVO (А.Гаврилов)
Аудио#6: Русский, AC3, 6 ch, 448 Кбит/с - AVO (А.Гаврилов)
Аудио#7: Русский, AC3, 6 ch, 448 Кбит/с - AVO (Ю.Сербин)
Аудио#8: Английский, AC3, 6 ch, 640 Кбит/сек
Видео
Идентификатор : 1
Формат : AVC
Формат/Информация : Advanced Video Codec
Профиль формата : High@L4
Настройки формата : CABAC / 4 Ref Frames
Параметр CABAC формата : Да
Параметр RefFrames формата : 4 кадра
Идентификатор кодека : V_MPEG4/ISO/AVC
Продолжительность : 2 ч. 20 м.
Вид битрейта : Переменный
Битрейт : 9500 Кбит/сек
Максимальный битрейт : 15,0 Мбит/сек
Ширина : 1920 пикселей
Высота : 1080 пикселей
Соотношение сторон : 16:9
Режим частоты кадров : Постоянный
Частота кадров : 23,976 (24000/1001) кадра/сек
Цветовое пространство : YUV
Субдискретизация насыщенности : 4:2:0
Битовая глубина : 8 бит
Тип развёртки : Прогрессивная
Бит/(Пиксели*Кадры) : 0.191
Размер потока : 9,31 Гбайт (73%)
Заголовок : The.Abyss.1989.1080p.WEBRip.DD5.1.x264
Default : Да
Forced : Нет
Цветовой диапазон : Limited
Основные цвета : BT.709
Характеристики трансфера : BT.709
Коэффициенты матрицы : BT.709

Аудио #1
Идентификатор : 2
Формат : AC-3
Формат/Информация : Audio Coding 3
Коммерческое название : Dolby Digital
Идентификатор кодека : A_AC3
Продолжительность : 2 ч. 20 м.
Вид битрейта : Постоянный
Битрейт : 448 Кбит/сек
Каналы : 6 каналов
Channel layout : L R C LFE Ls Rs
Частота : 48,0 КГц
Частота кадров : 31,250 кадров/сек (1536 SPF)
Битовая глубина : 16 бит
Метод сжатия : С потерями
Размер потока : 449 Мбайт (3%)
Заголовок : MVO R5
Язык : Russian
ServiceKind/String : Complete Main
Default : Да
Forced : Нет

Аудио #2
Идентификатор : 3
Формат : AC-3
Формат/Информация : Audio Coding 3
Коммерческое название : Dolby Digital
Идентификатор кодека : A_AC3
Продолжительность : 2 ч. 20 м.
Вид битрейта : Постоянный
Битрейт : 448 Кбит/сек
Каналы : 6 каналов
Channel layout : L R C LFE Ls Rs
Частота : 48,0 КГц
Частота кадров : 31,250 кадров/сек (1536 SPF)
Битовая глубина : 16 бит
Метод сжатия : С потерями
Размер потока : 449 Мбайт (3%)
Заголовок : MVO Киномания
Язык : Russian
ServiceKind/String : Complete Main
Default : Нет
Forced : Нет

Аудио #3
Идентификатор : 4
Формат : AC-3
Формат/Информация : Audio Coding 3
Коммерческое название : Dolby Digital
Идентификатор кодека : A_AC3
Продолжительность : 2 ч. 20 м.
Вид битрейта : Постоянный
Битрейт : 192 Кбит/сек
Каналы : 2 канала
Channel layout : L R
Частота : 48,0 КГц
Частота кадров : 31,250 кадров/сек (1536 SPF)
Битовая глубина : 16 бит
Метод сжатия : С потерями
Размер потока : 192 Мбайт (1%)
Заголовок : MVO НТВ
Язык : Russian
ServiceKind/String : Complete Main
Default : Нет
Forced : Нет

Аудио #4
Идентификатор : 5
Формат : AC-3
Формат/Информация : Audio Coding 3
Коммерческое название : Dolby Digital
Идентификатор кодека : A_AC3
Продолжительность : 2 ч. 20 м.
Вид битрейта : Постоянный
Битрейт : 448 Кбит/сек
Каналы : 6 каналов
Channel layout : L R C LFE Ls Rs
Частота : 48,0 КГц
Частота кадров : 31,250 кадров/сек (1536 SPF)
Битовая глубина : 16 бит
Метод сжатия : С потерями
Размер потока : 449 Мбайт (3%)
Заголовок : AVO Ю.Живов
Язык : Russian
ServiceKind/String : Complete Main
Default : Нет
Forced : Нет

Аудио #5
Идентификатор : 6
Формат : AC-3
Формат/Информация : Audio Coding 3
Коммерческое название : Dolby Digital
Идентификатор кодека : A_AC3
Продолжительность : 2 ч. 20 м.
Вид битрейта : Постоянный
Битрейт : 448 Кбит/сек
Каналы : 6 каналов
Channel layout : L R C LFE Ls Rs
Частота : 48,0 КГц
Частота кадров : 31,250 кадров/сек (1536 SPF)
Битовая глубина : 16 бит
Метод сжатия : С потерями
Размер потока : 449 Мбайт (3%)
Заголовок : AVO А.Гаврилов #1
Язык : Russian
ServiceKind/String : Complete Main
Default : Нет
Forced : Нет

Аудио #6
Идентификатор : 7
Формат : AC-3
Формат/Информация : Audio Coding 3
Коммерческое название : Dolby Digital
Идентификатор кодека : A_AC3
Продолжительность : 2 ч. 20 м.
Вид битрейта : Постоянный
Битрейт : 448 Кбит/сек
Каналы : 6 каналов
Channel layout : L R C LFE Ls Rs
Частота : 48,0 КГц
Частота кадров : 31,250 кадров/сек (1536 SPF)
Битовая глубина : 16 бит
Метод сжатия : С потерями
Размер потока : 449 Мбайт (3%)
Заголовок : AVO А.Гаврилов #2
Язык : Russian
ServiceKind/String : Complete Main
Default : Нет
Forced : Нет

Аудио #7
Идентификатор : 8
Формат : AC-3
Формат/Информация : Audio Coding 3
Коммерческое название : Dolby Digital
Идентификатор кодека : A_AC3
Продолжительность : 2 ч. 20 м.
Вид битрейта : Постоянный
Битрейт : 448 Кбит/сек
Каналы : 6 каналов
Channel layout : L R C LFE Ls Rs
Частота : 48,0 КГц
Частота кадров : 31,250 кадров/сек (1536 SPF)
Битовая глубина : 16 бит
Метод сжатия : С потерями
Размер потока : 449 Мбайт (3%)
Заголовок : AVO Ю.Сербин
Язык : Russian
ServiceKind/String : Complete Main
Default : Нет
Forced : Нет

Аудио #8
Идентификатор : 9
Формат : E-AC-3
Формат/Информация : Enhanced AC-3
Коммерческое название : Dolby Digital Plus
Идентификатор кодека : A_EAC3
Продолжительность : 2 ч. 20 м.
Вид битрейта : Постоянный
Битрейт : 640 Кбит/сек
Каналы : 6 каналов
Channel layout : L R C LFE Ls Rs
Частота : 48,0 КГц
Частота кадров : 31,250 кадров/сек (1536 SPF)
Метод сжатия : С потерями
Размер потока : 642 Мбайт (5%)
Язык : English
ServiceKind/String : Complete Main
Default : Нет
Forced : Нет

Текст #1
Идентификатор : 10
Формат : UTF-8
Идентификатор кодека : S_TEXT/UTF8
Идентификатор кодека/Информация : UTF-8 Plain Text
Продолжительность : 2 ч. 16 м.
Битрейт : 55 бит/сек
ElementCount : 1289
Размер потока : 55,3 Кбайт (0%)
Язык : Russian
Default : Да
Forced : Да

Текст #2
Идентификатор : 11
Формат : UTF-8
Идентификатор кодека : S_TEXT/UTF8
Идентификатор кодека/Информация : UTF-8 Plain Text
Продолжительность : 2 ч. 15 м.
Битрейт : 45 бит/сек
ElementCount : 1834
Размер потока : 45,5 Кбайт (0%)
Язык : English
Default : Нет
Forced : Нет

скриншот   скриншот   скриншот   скриншот   скриншот  

pb.wtf



Скачать Бездна через торрент http://pic1.kartinco.top/images/12/ojfxd.jpg Скачать фильм Бездна через торрент бесплантно в хорошем качестве Описание: Атомная подводная лодка «Монтана» ВМФ США с ядерным оружием на борту терпит крушение на огромной глубине. Министерство флота ... 10 10 7
Торрент: Зарегистрирован [2019-04-20 20:15] · скачан: 86 раз
Статус: √ проверено
Размер: 12.76 GB
Как cкачать? Как скачать Бездна через торрент | qTorrent


>> Регистрируемся здесь <<






Отзывы и комментарии о схеме читаем и пишем здесь: ---> Отзывы и комментарии о схеме

Новые благодарочки в телеграм довольных пользователей:
скриншот   скриншот   скриншот   скриншот   скриншот

20-04-2019 21:54 Бездна Скачать торрент  

Шикарный фильм! Непонятно почему до сих пор не выпустили на блюрей?..pb.wtf



20-04-2019 23:10 Бездна Скачать торрент  

Кэмерон плохие фильмы не ставит, фильм хороший.
А нет ли случайно другой "Бездны" - тоже хороший фильм.
pb.wtf



21-04-2019 06:15 Бездна Скачать торрент  

Vizbald писал(а):

А нет ли случайно другой "Бездны" - тоже хороший фильм.

ты еще скажи, что фильм, который ты ищещь, про кладоискателей, которые в океане вместо клада нашли груз наркоты и огребли кучу трабловpb.wtf



21-04-2019 07:38 Бездна Скачать торрент  

Фильм шедевральный, еще в нулевых смотрел.pb.wtf



21-04-2019 11:50 Бездна Скачать торрент  

beltrop писал(а):

Vizbald писал(а):

А нет ли случайно другой "Бездны" - тоже хороший фильм.

ты еще скажи, что фильм, который ты ищещь, про кладоискателей, которые в океане вместо клада нашли груз наркоты и огребли кучу траблов

Нет, он наверное имел в виду фильм про глубоководных ныряльщиков, ака дайверы без снаряжения, с Жаном Рено в главной Роли ;)pb.wtf



21-04-2019 14:35 Бездна Скачать торрент  

Жаль, что не расширенная версия.pb.wtf



22-04-2019 21:46 Бездна Скачать торрент  

серж 650 писал(а):

Шикарный фильм! Непонятно почему до сих пор не выпустили на блюрей?..

есть режиссерка в 1080р, блюрей можно сделать самому с помощью tsmuxerpb.wtf



22-04-2019 21:46 Бездна Скачать торрент  

Rivilio писал(а):

beltrop писал(а):

Vizbald писал(а):

А нет ли случайно другой "Бездны" - тоже хороший фильм.

ты еще скажи, что фильм, который ты ищещь, про кладоискателей, которые в океане вместо клада нашли груз наркоты и огребли кучу траблов

Нет, он наверное имел в виду фильм про глубоководных ныряльщиков, ака дайверы без снаряжения, с Жаном Рено в главной Роли ;)

Это фильм Голубая бездна - Le grand bleu 1988 годаpb.wtf



28-04-2019 06:06 Бездна Скачать торрент  

Этому фильму уже 30 лет) А смотрится до сих пор на высоте pb.wtf



    Дорогой пользователь! Огромная просьба, поблагодарите релизера, оцените раздачу и оставьте свои комментарий, если Вы скачали Бездна через торрент бесплатно! Внесите свою лепту в развитие PiratBit!
    Комментировать посты могут только пользователи прошедшие не сложную регистрацию
    Показать сообщения:    

    Бездна через торрент
    Скачать бесплатно Бездна
    Бездна скачать торрент
    Бездна смотреть онлайн
    Cкачать фильм Бездна бесплатно
    Бездна скачать торрент в хорошем качестве
    Бездна смотреть онлайн бесплатно в хорошем качестве


    Вы не можете начинать темы
    Вы не можете отвечать на сообщения
    Вы не можете редактировать свои сообщения
    Вы не можете удалять свои сообщения
    Вы не можете голосовать в опросах
    Вы не можете прикреплять файлы к сообщениям
    Вы можете скачивать файлы