Ссылка на приватное зеркало нашего сайта всего за 1$. Внимание количество ограничено!!!

2 сезон

iTunes

1 сезон

1

iTunes

iTunes

iTunes

1 сезон

RePack

30

ИГРА 18+

pack

ВАЖНО

!!Акция!!

Alien_RageХит недели

RePack

MK11
pack

Забери бонус

RePack

jed

!!Акция!!

Alien_Rage

RePack

fifa19

RePack

Assassins Creed: Odyssey

RePack

NEED FOR SPEED™ PAYBACK

4 сезон

9 сезон

Бесстыжие 9 сезон

Все сериалы

все сериалы на PB.wtf

RePack

FAR CRY 5
  

Двойник / Серии: 1-4 из 4 (Александр Данилов) [2019, драма, фантастика, WEB-DL 720p] pb.wtf

Двойник через торрент pb.wtf

Размер: 4.04 GB | Добавлен: 1 год 6 мес. назад | Торрент скачан:113 раз
Скачать  

21-04-2019 04:56 Двойник Скачать торрент  

Двойник Год выпуска: 2019
Страна: Россия
Жанр: драма, фантастика
Продолжительность: ~ 00:48:00 серия
Перевод: Не требуется
Субтитры: отсутствуют

Режиссер: Александр Данилов




В ролях:

Владимир Верёвочкин, Кристина Александрова, Татьяна Космачёва, Александр Фисенко, Владимир Виноградов, Елена Вовненко, Виталия Корниенко, Анна Куркова, Константин Новиков, Максим Евсеев, Давид Колчин, Софья Цепкова, Пётр Рябов, Евгений Евсюков

Описание:

Прошло семь лет с тех пор, как Артём потерял в аварии невесту Лилю, но ни новый брак, ни дочь Соня так и не смогли залечить рану в его душе. Жизнь Артёма становится совсем невыносимой, когда в неё врывается… его собственный двойник из параллельного мира. Тот, другой Артём — жестокий коллектор и преступник, который обвиняется в ограблении банка. Правда, в том мире жива Лиля, но вот беда — она его уже не любит! Против своей воли Артём меняется мирами с Двойником и теперь должен не только разобраться с проблемами чужой жизни, но и вернуться в свою, чтобы спасти близких от жестокого и коварного Двойника. Самый страшный враг человека — это он сам, и главному герою «Двойника» предстоит сразиться именно с таким противником. Но даже если от него отвернутся все близкие, он готов биться за свою любовь до конца!

Качество: WEB-DL 720p
Формат: MKV

Видео: MPEG4 AVC Video, H264, 16:9, 1280x720, 25 fps, ~2900 kbps, 0.126 bit/pixel
Аудио: AC3 Dolby Digital, 48.0 kHz, 2/0 (L,R) ch, 192 kbps
скриншот  скриншот  скриншот  скриншот  скриншот  

скриншот  скриншот  скриншот  скриншот  скриншот  

General
Unique ID : 252994207300586873285377619030590159504 (0xBE54E97630631DB3AAA26097A6B4FA90)
Complete name : D:\Двойник..2019. WEB-DL 720p. Files-x\01. Двойник..2019. WEB-DL 720p. Files-x.mkv
Format : Matroska
Format version : Version 2
File size : 1 003 MiB
Duration : 44 min 24 s
Overall bit rate : 3 158 kb/s
Encoded date : UTC 2019-04-20 08:10:16
Writing application : mkvmerge v7.8.0 ('River Man') 32bit built on Apr 3 2015 12:11:22
Writing library : libebml v1.3.1 + libmatroska v1.4.2

Video
ID : 1
Format : AVC
Format/Info : Advanced Video Codec
Format profile : High@L3.1
Format settings : CABAC / 1 Ref Frames
Format settings, CABAC : Yes
Format settings, ReFrames : 1 frame
Format settings, GOP : M=1, N=12
Codec ID : V_MPEG4/ISO/AVC
Duration : 44 min 24 s
Bit rate : 2 903 kb/s
Width : 1 280 pixels
Height : 720 pixels
Display aspect ratio : 16:9
Frame rate mode : Constant
Frame rate : 25.000 FPS
Standard : Component
Color space : YUV
Chroma subsampling : 4:2:0
Bit depth : 8 bits
Scan type : Progressive
Bits/(Pixel*Frame) : 0.126
Stream size : 922 MiB (92%)
Default : Yes
Forced : No
Color range : Limited

Audio
ID : 2
Format : AC-3
Format/Info : Audio Coding 3
Codec ID : A_AC3
Duration : 44 min 24 s
Bit rate mode : Constant
Bit rate : 192 kb/s
Channel(s) : 2 channels
Channel positions : Front: L R
Sampling rate : 44.1 kHz
Frame rate : 28.711 FPS (1536 SPF)
Bit depth : 16 bits
Compression mode : Lossy
Stream size : 61.0 MiB (6%)
Service kind : Complete Main
Default : Yes
Forced : No

pb.wtf



Скачать Двойник через торрент http://img14.lostpic.net/2019/04/19/5213169317c8e048c1e2a8e69f15072e.jpg Скачать фильм Двойник через торрент бесплантно в хорошем качестве Описание: Прошло семь лет с тех пор, как Артём потерял в аварии невесту Лилю, но ни новый брак, ни дочь Соня так и не смогли залечить рану ... 10 10 4
Торрент: Зарегистрирован [2019-04-21 04:56] · скачан: 113 раз
Статус: √ проверено
Размер: 4.04 GB
Как cкачать? Как скачать Двойник через торрент | qTorrent

% Раздел Тема Автор DL S | L
Наши сериалы [ 2.29 GB ] Двойник / Серии: 1-4 из 4 [2019 WEBRip-AVC] bober100 Скачать
1 | 0
Наши сериалы [ 2.3 GB ] Двойник / Серии: 1-4 из 4 [2019 WEB-DLRip] bober100 Скачать
1 | 0
Наши сериалы [ 2.34 GB ] Двойник / Серии: 1-4 из 4 [2019 SATRip] bober100 Скачать
1 | 0

28-11-2019 20:33  

Отключить всю рекламу на сайте

    Дорогой пользователь! Огромная просьба, поблагодарите релизера, оцените раздачу и оставьте свои комментарий, если Вы скачали Двойник через торрент бесплатно! Внесите свою лепту в развитие PiratBit!
    Комментировать посты могут только пользователи прошедшие не сложную регистрацию
    Показать сообщения:    

    Двойник через торрент
    Скачать бесплатно Двойник
    Двойник скачать торрент
    Двойник смотреть онлайн
    Cкачать фильм Двойник бесплатно
    Двойник скачать торрент в хорошем качестве
    Двойник смотреть онлайн бесплатно в хорошем качестве


    Вы не можете начинать темы
    Вы не можете отвечать на сообщения
    Вы не можете редактировать свои сообщения
    Вы не можете удалять свои сообщения
    Вы не можете голосовать в опросах
    Вы не можете прикреплять файлы к сообщениям
    Вы можете скачивать файлы