новый адрес
Мега распродажа FORZA HORIZON 4 ULTIMATE+ВСЕ DLC+ОНЛАЙН всего за 499р. 349 руб. (супер цена). Внимание количество ограничено!!!

iTunes

1+1

iTunes

мы

iTunes

1

iTunes

Чернобыль

iTunes

Ральф против интернета

Лицензия

ПШазам

Лицензия

Игра престолов

Лицензия

30
pack

ВАЖНО

!!Акция!!

Alien_RageХит недели

RePack

Resident Evil 21

ИГРА 18+

pack

RePack

Metro:Exodus

!!Акция!!

Alien_Rage

RePack

fifa19

RePack

Assassins Creed: Odyssey

RePack

NEED FOR SPEED™ PAYBACK

3 сезон

9 сезон

Бесстыжие 9 сезон

Все сериалы

все сериалы на PB.wtf

RePack

FAR CRY 5
Ребята, катастрофически не хватает 1900р. для оплаты серверов за Октябрь (всвязи с блокировками трафик упал в 3 раза), 1-2р., выручайте.
  

Блондинка за углом (Владимир Бортко) [1984 г., Мелодрама, комедия, HDTVRip 720p] pb.wtf

Блондинка за углом через торрент pb.wtf

Размер: 2.5 GB | Добавлен: 6 мес. назад | Торрент скачан:14 раз
Скачать  

21-04-2019 07:11 Блондинка за углом Скачать торрент  

Блондинка за углом
Год выпуска: 1984
Страна: СССР
Жанр: Мелодрама, комедия
Продолжительность: 01:18:22
Субтитры: Отсутствуют

Режиссер: Владимир Бортко

rating

В ролях: Татьяна Догилева, Андрей Миронов, Марк Прудкин, Евгения Ханаева, Елена Соловей, Анатолий Сливников, Баадур Цуладзе, Анатолий Равикович, Сергей Бехтерев, Павел Кадочников

Описание: Бывший астрофизик Николай, потративший пятнадцать лет на бесплодные поиски внеземных цивилизаций, и не сумевший приобрести в жизни ничего материального, устраивается на работу грузчиком в универсам, где влюбляется в симпатичную продавщицу гастрономического отдела Надежду, которую он, как оказалось, видел каждое утро на автобусной остановке. Обаятельная Надежда является подлинной хозяйкой «этой» жизни, к которой она стремится приобщить Николая. Не выдержав пребывания в новом статусе, Николай сбегает с собственной свадьбы. Он возвращается к своей прежней работе, уезжая в исследовательскую командировку на Крайний Север…Надежда едет вместе с ним.

Качество: HDTVRip 720p
Формат: MKV
Видео кодек: AVC
Аудио кодек: AC3
Видео: AVC, 1280x482 , 25.0fps, 4284 Kbps
Аудио#1: AC3 , 2 ch , 48 kHz , 192 kbps
скриншот   скриншот   скриншот   скриншот   скриншот   скриншот  

Общее
Уникальный идентификатор : 251935552084965773849770093607514017476 (0xBD8905BACD373288BF559361B0700EC4)
Полное имя : D:Блондинка за углом_1984_HDTVRip 720p_KORSAR.mkv
Формат : Matroska
Версия формата : Version 2
Размер файла : 2,50 Гбайт
Продолжительность : 1 ч. 18 м.
Общий поток : 4567 Кбит/сек
Название фильма : Блондинка за углом_1984_HDTVRip 720p_KORSAR
Дата кодирования : UTC 2019-03-18 18:11:12
Программа кодирования : mkvmerge v5.8.0 ('No Sleep / Pillow') built on Sep 2 2012 15:37:04
Библиотека кодирования : libebml v1.2.3 + libmatroska v1.3.0

Видео
Идентификатор : 1
Формат : AVC
Формат/Информация : Advanced Video Codec
Профиль формата : High@L4.1
Параметр CABAC формата : Да
Параметр ReFrames формата : 13 кадров
Идентификатор кодека : V_MPEG4/ISO/AVC
Продолжительность : 1 ч. 18 м.
Битрейт : 4284 Кбит/сек
Ширина : 1280 пикселей
Высота : 482 пикселя
Соотношение сторон : 2,656
Режим частоты кадров : Постоянный
Частота кадров : 25,000 кадров/сек
Цветовое пространство : YUV
Субдискретизация насыщенности : 4:2:0
Битовая глубина : 8 бит
Тип развёртки : Прогрессивная
Бит/(Пиксели*Кадры) : 0.278
Размер потока : 2,35 Гбайт (94%)
Библиотека кодирования : x264 core 152 r2851kMod ba24899
Настройки программы : cabac=1 / ref=13 / deblock=1:-2:-2 / analyse=0x3:0x113 / me=umh / subme=10 / psy=1 / fade_compensate=0.00 / psy_rd=1.05:0.10 / mixed_ref=1 / me_range=40 / chroma_me=1 / trellis=2 / 8x8dct=1 / cqm=0 / deadzone=21,11 / fast_pskip=1 / chroma_qp_offset=-3 / threads=12 / lookahead_threads=3 / sliced_threads=0 / nr=0 / decimate=1 / interlaced=0 / bluray_compat=0 / constrained_intra=0 / bframes=12 / b_pyramid=2 / b_adapt=2 / b_bias=0 / direct=1 / weightb=1 / open_gop=0 / weightp=2 / keyint=250 / keyint_min=25 / scenecut=40 / intra_refresh=0 / rc=crf / mbtree=0 / crf=18.1000 / qcomp=0.63 / qpmin=0 / qpmax=30 / qpstep=4 / ip_ratio=1.40 / pb_ratio=1.30 / aq=1:0.90
Язык : English
Default : Да
Forced : Нет
Основные цвета : BT.709
Характеристики трансфера : BT.709
Коэффициенты матрицы : BT.709

Аудио
Идентификатор : 2
Формат : AC-3
Формат/Информация : Audio Coding 3
Расширение режима : CM (complete main)
Параметр Endianness формата : Big
Идентификатор кодека : A_AC3
Продолжительность : 1 ч. 18 м.
Вид битрейта : Постоянный
Битрейт : 192 Кбит/сек
Каналы : 2 канала
Расположение каналов : Front: L R
Частота : 48,0 КГц
Битовая глубина : 16 бит
Метод сжатия : С потерями
Размер потока : 108 Мбайт (4%)
Язык : Russian
Default : Да
Forced : Нет

pb.wtf



Скачать Блондинка за углом через торрент http://pic1.kartinco.top/images/12/cknus.jpg Скачать фильм Блондинка за углом через торрент бесплантно в хорошем качестве Описание: Бывший астрофизик Николай, потративший пятнадцать лет на бесплодные поиски внеземных цивилизаций, и не сумевший приобрести в ... 10 10 4
Info! Золотая раздача, скачанное не засчитывается.
Торрент: Зарегистрирован [2019-04-21 07:11] · скачан: 14 раз
Статус: √ проверено
Размер: 2.5 GB
Как cкачать? Как скачать Блондинка за углом через торрент | qTorrent


>> Регистрируемся здесь <<






Отзывы и комментарии о схеме читаем и пишем здесь: ---> Отзывы и комментарии о схеме

Новые благодарочки в телеграм довольных пользователей:
скриншот   скриншот   скриншот   скриншот   скриншот

21-04-2019 10:07 Блондинка за углом Скачать торрент  

Очень хороший фильм, отличная игра прекрасных артистов, замечательный Миронов и очаровательная не тюнингованная Догилева, классная режиссура Бортко. Хорошо показано то из 80-х, что взорвало страну в 1991. Финал- дань месту и времени, но тогда могло быть так и на самом деле. Спасибо за раздачу.pb.wtf



    Дорогой пользователь! Огромная просьба, поблагодарите релизера, оцените раздачу и оставьте свои комментарий, если Вы скачали Блондинка за углом через торрент бесплатно! Внесите свою лепту в развитие PiratBit!
    Комментировать посты могут только пользователи прошедшие не сложную регистрацию
    Показать сообщения:    

    Блондинка за углом через торрент
    Скачать бесплатно Блондинка за углом
    Блондинка за углом скачать торрент
    Блондинка за углом смотреть онлайн
    Cкачать фильм Блондинка за углом бесплатно
    Блондинка за углом скачать торрент в хорошем качестве
    Блондинка за углом смотреть онлайн бесплатно в хорошем качестве


    Вы не можете начинать темы
    Вы не можете отвечать на сообщения
    Вы не можете редактировать свои сообщения
    Вы не можете удалять свои сообщения
    Вы не можете голосовать в опросах
    Вы не можете прикреплять файлы к сообщениям
    Вы можете скачивать файлы