Ссылка на приватное зеркало всего за 1$. Внимание количество ограничено!!!

OK

1+1

iTunes

мы

OK

1

WEB-DLRip

Джокер

Пифагор

Ведьмак / The Witcher сериал

iTunes

ПШазам

ОК

Оно 2

iTunes

30
pack

Вам бонус

ВАЖНО

!!Акция!!

Alien_RageХит недели

RePack

Resident Evil 21

ИГРА 18+

pack

RePack

jed

RePack

fifa19

RePack

Assassins Creed: Odyssey

RePack

NEED FOR SPEED™ PAYBACK

4 сезон

9 сезон

Бесстыжие 9 сезон

Все сериалы

все сериалы на PB.wtf

RePack

FAR CRY 5
  

Кого бы вы взяли на необитаемый остров? / ¿A quién te llevarías a una isla desierta? (Хота Линарес) [2019, драма, WEB-DL 720p] MVO ["Синема УС"] pb.wtf

Кого бы вы взяли на необитаемый остров? через торрент pb.wtf

Размер: 3.74 GB | Добавлен: 9 мес. назад | Торрент скачан:19 раз
Скачать  

21-04-2019 07:35 Кого бы вы взяли на необитаемый остров? Скачать торрент  

Кого бы вы взяли на необитаемый остров? / ¿A quién te llevarías a una isla desierta?
Год выпуска: 2019
Страна: Испания
Жанр: драма
Продолжительность: 01:34:21
Перевод: Любительский (многоголосый) | "Синема УС"
Субтитры: отсутствуют

Режиссер: Хота Линарес

rating

В ролях:

Поль Монтаньес, Хайме Лорэнте, Андреа Рос, Мария Педрасaа, Селия де Молина

Описание:

В последний вечер их совместной жизни четыре давних соседа по комнате внезапно прерываются, когда в ходе вечернего празднования раскрывается секрет.

Качество: WEB-DL 720p
Формат: MKV

Видео: h.264,5 288 Кбит/с, 1280x692
Аудио#1: Русский, (AC3, 2 ch, 384 Кбит/с)
скриншот  скриншот  скриншот  

Общее
Уникальный идентификатор : 240297348908533745527989424763805353555 (0xB4C79602EA458F4E9A80A00F2613C653)
Полное имя : D:\Who.Would.You.Take.to.a.Deserted.Island.2019.P.WEB-DL.72Op.mkv
Формат : Matroska
Версия формата : Version 2
Размер файла : 3,74 Гбайт
Продолжительность : 1 ч. 34 м.
Режим общего битрейта : Переменный
Общий поток : 5674 Кбит/сек
Дата кодирования : UTC 2019-04-20 03:44:11
Программа кодирования : mkvmerge v8.3.0 ('Over the Horizon') 64bit
Библиотека кодирования : libebml v1.3.1 + libmatroska v1.4.2

Видео
Идентификатор : 1
Формат : AVC
Формат/Информация : Advanced Video Codec
Профиль формата : High@L4.1
Параметр CABAC формата : Да
Параметр RefFrames формата : 4 кадра
Идентификатор кодека : V_MPEG4/ISO/AVC
Продолжительность : 1 ч. 34 м.
Вид битрейта : Переменный
Битрейт : 5288 Кбит/сек
Максимальный битрейт : 6000 Кбит/сек
Ширина : 1280 пикселей
Высота : 692 пикселя
Соотношение сторон : 1,85:1
Режим частоты кадров : Постоянный
Частота кадров : 23,976 (24000/1001) кадра/сек
Стандарт вещания : Component
Цветовое пространство : YUV
Субдискретизация насыщенности : 4:2:0
Битовая глубина : 8 бит
Тип развёртки : Прогрессивная
Бит/(Пиксели*Кадры) : 0.244
Размер потока : 3,41 Гбайт (91%)
Default : Да
Forced : Нет
Цветовой диапазон : Limited
Основные цвета : BT.709
Характеристики трансфера : BT.709
Коэффициенты матрицы : BT.709

Аудио
Идентификатор : 2
Формат : AC-3
Формат/Информация : Audio Coding 3
Расширение режима : CM (complete main)
Параметр Endianness формата : Big
Идентификатор кодека : A_AC3
Продолжительность : 1 ч. 34 м.
Вид битрейта : Постоянный
Битрейт : 384 Кбит/сек
Каналы : 2 канала
Расположение каналов : Front: L R
Частота : 48,0 КГц
Частота кадров : 31,250 кадров/сек (1536 spf)
Метод сжатия : С потерями
Размер потока : 259 Мбайт (7%)
Default : Да
Forced : Нет

pb.wtf



Скачать Кого бы вы взяли на необитаемый остров? через торрент https://a.radikal.ru/a10/1904/4b/61f32df1dd20.jpg Скачать фильм Кого бы вы взяли на необитаемый остров? через торрент бесплантно в хорошем качестве Описание: В последний вечер их совместной жизни четыре давних соседа по комнате внезапно прерываются, когда в ходе вечернего празднования ... 10 10 2
Торрент: Зарегистрирован [2019-04-21 07:35] · скачан: 19 раз
Статус: T временная
Размер: 3.74 GB
Как cкачать? Как скачать Кого бы вы взяли на необитаемый остров? через торрент | qTorrent

28-11-2019 20:33  

Отключить всю рекламу на сайте

    Дорогой пользователь! Огромная просьба, поблагодарите релизера, оцените раздачу и оставьте свои комментарий, если Вы скачали Кого бы вы взяли на необитаемый остров? через торрент бесплатно! Внесите свою лепту в развитие PiratBit!
    Комментировать посты могут только пользователи прошедшие не сложную регистрацию
    Показать сообщения:    

    Кого бы вы взяли на необитаемый остров? через торрент
    Скачать бесплатно Кого бы вы взяли на необитаемый остров?
    Кого бы вы взяли на необитаемый остров? скачать торрент
    Кого бы вы взяли на необитаемый остров? смотреть онлайн
    Cкачать фильм Кого бы вы взяли на необитаемый остров? бесплатно
    Кого бы вы взяли на необитаемый остров? скачать торрент в хорошем качестве
    Кого бы вы взяли на необитаемый остров? смотреть онлайн бесплатно в хорошем качестве


    Вы не можете начинать темы
    Вы не можете отвечать на сообщения
    Вы не можете редактировать свои сообщения
    Вы не можете удалять свои сообщения
    Вы не можете голосовать в опросах
    Вы не можете прикреплять файлы к сообщениям
    Вы можете скачивать файлы