Ссылка на приватное зеркало всего за 1$. Внимание количество ограничено!!!

OK

1+1

iTunes

мы

OK

1

WEB-DLRip

Джокер

Пифагор

Ведьмак / The Witcher сериал

iTunes

ПШазам

ОК

Оно 2

iTunes

30
pack

Вам бонус

ВАЖНО

!!Акция!!

Alien_RageХит недели

RePack

Resident Evil 21

ИГРА 18+

pack

RePack

jed

RePack

fifa19

RePack

Assassins Creed: Odyssey

RePack

NEED FOR SPEED™ PAYBACK

4 сезон

9 сезон

Бесстыжие 9 сезон

Все сериалы

все сериалы на PB.wtf

RePack

FAR CRY 5
  

Путешествие / The Journey (Мохамед Аль-Дараджи) [2017, триллер, драма, WEB-DL 720p] MVO ["Синема УС"] pb.wtf

Путешествие через торрент pb.wtf

Раздают: 1 [ 0 KB/s ]
Размер: 3.26 GB | Добавлен: 9 мес. назад | Торрент скачан:17 раз
Скачать  

21-04-2019 07:51 Путешествие Скачать торрент  

Путешествие / The JourneyГод выпуска: 2017
Страна: Ирак, Канада, Великобритания, Франция, Катар, Нидерланды
Жанр: триллер, драма
Продолжительность: 01:22:55
Перевод: Любительский (многоголосый) | "Синема УС"
Субтитры: отсутствуют

Режиссер: Мохамед Аль-Дараджи

rating

В ролях: Беннет де Брабандере, Захра Гандур, Амир Джабара, Мишель Кандинский

Описание: Сара готовится совершить теракт, взорвав себя на вокзале, однако с ней знакомится бабник по имени Салам, который кардинально меняет её взгляды на жизнь.

Качество: WEB-DL 720p
Формат: MKV

Видео: h.264, 5 241 Кбит/с, 1280x688
Аудио#1: Русский, (AC3, 2 ch, 384 Кбит/с)
скриншот  скриншот  скриншот  

Общее
Уникальный идентификатор : 189361029912825171042317634235843129128 (0x8E759B9787A2EBF58FF589865836AF28)
Полное имя : D:\The.Journey.2017.P.WEB-DL.72Op.mkv
Формат : Matroska
Версия формата : Version 2
Размер файла : 3,26 Гбайт
Продолжительность : 1 ч. 22 м.
Режим общего битрейта : Переменный
Общий поток : 5627 Кбит/сек
Дата кодирования : UTC 2019-04-20 05:14:02
Программа кодирования : mkvmerge v8.3.0 ('Over the Horizon') 64bit
Библиотека кодирования : libebml v1.3.1 + libmatroska v1.4.2

Видео
Идентификатор : 1
Формат : AVC
Формат/Информация : Advanced Video Codec
Профиль формата : High@L4.1
Параметр CABAC формата : Да
Параметр RefFrames формата : 4 кадра
Идентификатор кодека : V_MPEG4/ISO/AVC
Продолжительность : 1 ч. 22 м.
Вид битрейта : Переменный
Битрейт : 5241 Кбит/сек
Максимальный битрейт : 6000 Кбит/сек
Ширина : 1280 пикселей
Высота : 688 пикселей
Соотношение сторон : 1,85:1
Режим частоты кадров : Постоянный
Частота кадров : 23,976 (24000/1001) кадра/сек
Стандарт вещания : Component
Цветовое пространство : YUV
Субдискретизация насыщенности : 4:2:0
Битовая глубина : 8 бит
Тип развёртки : Прогрессивная
Бит/(Пиксели*Кадры) : 0.243
Размер потока : 2,97 Гбайт (91%)
Default : Да
Forced : Нет
Цветовой диапазон : Limited
Основные цвета : BT.709
Характеристики трансфера : BT.709
Коэффициенты матрицы : BT.709

Аудио
Идентификатор : 2
Формат : AC-3
Формат/Информация : Audio Coding 3
Расширение режима : CM (complete main)
Параметр Endianness формата : Big
Идентификатор кодека : A_AC3
Продолжительность : 1 ч. 22 м.
Вид битрейта : Постоянный
Битрейт : 384 Кбит/сек
Каналы : 2 канала
Расположение каналов : Front: L R
Частота : 48,0 КГц
Частота кадров : 31,250 кадров/сек (1536 spf)
Метод сжатия : С потерями
Размер потока : 228 Мбайт (7%)
Default : Да
Forced : Нет

pb.wtf



Скачать Путешествие через торрент https://d.radikal.ru/d01/1904/6e/ba9d54e4dc68.jpg Скачать фильм Путешествие через торрент бесплантно в хорошем качестве Описание: Сара готовится совершить теракт, взорвав себя на вокзале, однако с ней знакомится бабник по имени Салам, который кардинально ... 10 10 4
Торрент: Зарегистрирован [2019-04-21 07:51] · скачан: 17 раз
Статус: T временная
Размер: 3.26 GB
Как cкачать? Как скачать Путешествие через торрент | qTorrent

% Раздел Тема Автор DL S | L
Фильмы [HD 720p, 1080p] (Хороший звук DUB, MVO) [ 5.67 GB ] Путешествие Нэтти Ганн / The journey of Natty Gann [1985 детский BDRip 720p от KORSAR] [2xVO] filbi1976 Скачать
1 | 0
# Фильмы (мультфильмы) cо спонсором показа (Новинки AVI/MKV) [ 5.53 GB ] Путешествие на Запад: Демоны / Journey to the West: Demon Chapter / Xi you fu yao pian [2017 BDRip 720p] MVO ["Синема УС"] bober100 Скачать
1 | 0
T Фильмы (мультфильмы) cо спонсором показа (Новинки AVI/MKV) [ 1.37 GB ] Путешествие на Запад: Демоны / Journey to the West: Demon Chapter / Xi you fu yao pian [2017 HDRip] MVO ["Синема УС"] bober100 Скачать
1 | 0
T Фильмы (мультфильмы) cо спонсором показа (Новинки AVI/MKV) [ 1.37 GB ] Путешествие / The Journey [2017 WEB-DLRip] MVO ["Синема УС"] bober100 Скачать
1 | 0
Фильмы (HD 720p, 1080p) (48-60 fps) [ 4.07 GB ] Путешествие к Центру Земли / Journey to the Center of the Earth [2008 BDRip 720p / 60 FPS ]от R.G. HD-Films slaventi-69 Скачать
1 | 0
# Фильмы (HD 720p, 1080p) (48-60 fps) [ 4.24 GB ] Путешествие 2: Таинственный остров / Journey 2: The Mysterious Island [2012 BDRip 720p / 60 FPS ] slaventi-69 Скачать
1 | 0
Фильмы [HD 720p, 1080p] (Хороший звук DUB, MVO) [ 10.49 GB ] Путешествие на Запад: Покорение демонов / Journey to the West: Conquering the Demons [2013 BDRip 1080pDVO + Original+Sub] Assasinca Скачать
1 | 0

28-11-2019 20:33  

Отключить всю рекламу на сайте

    Дорогой пользователь! Огромная просьба, поблагодарите релизера, оцените раздачу и оставьте свои комментарий, если Вы скачали Путешествие через торрент бесплатно! Внесите свою лепту в развитие PiratBit!
    Комментировать посты могут только пользователи прошедшие не сложную регистрацию
    Показать сообщения:    

    Путешествие через торрент
    Скачать бесплатно Путешествие
    Путешествие скачать торрент
    Путешествие смотреть онлайн
    Cкачать фильм Путешествие бесплатно
    Путешествие скачать торрент в хорошем качестве
    Путешествие смотреть онлайн бесплатно в хорошем качестве


    Вы не можете начинать темы
    Вы не можете отвечать на сообщения
    Вы не можете редактировать свои сообщения
    Вы не можете удалять свои сообщения
    Вы не можете голосовать в опросах
    Вы не можете прикреплять файлы к сообщениям
    Вы можете скачивать файлы