Marvel's Avengers Deluxe Edition (супер цена) 159р. Внимание количество ограничено!!!

2 сезон

iTunes

iTunes

1

iTunes

iTunes

iTunes

WEBRip

iTunes

30
pack

Новость дня

ВАЖНО

!!Акция!!

Alien_RageХит недели

RePack

Horizon Zero Dawn

ИГРА 18+

pack

RePack

jed

!!Акция!!

Alien_Rage

RePack

fifa19

RePack

Assassins Creed: Odyssey

RePack

NEED FOR SPEED™ PAYBACK

4 сезон

9 сезон

Бесстыжие 9 сезон

Все сериалы

все сериалы на PB.wtf

RePack

FAR CRY 5
  

Ограбление по Фрейду / Ruben Brandt, Collector (Милорад Крстич) [2018, Мультфильм, боевик, криминал, BDRip 720p] DUB [Line] pb.wtf

Ограбление по Фрейду через торрент pb.wtf

Размер: 4.52 GB | Добавлен: 1 год 4 мес. назад | Торрент скачан:37 раз
Скачать  

21-04-2019 11:04 Ограбление по Фрейду Скачать торрент  

Ограбление по Фрейду / Ruben Brandt, Collector
Год выпуска: 2018
Страна: Венгрия
Жанр: Мультфильм, боевик, криминал
Продолжительность: 01:35:40
Перевод: Дублированный | Line
Субтитры: отсутствуют

Режиссер: Милорад Крстич

rating

В ролях:

Иван Камараш, Габриэлла Хамори, Залан Макранчи, Цаба Мартон, Пол Беллантони, Мэтт Девере, Каталин Домби, Генри Грант, Петер Линка, Мате Месарош

Описание:

Психоаналитик экстра-класса и рафинированный эстет Рубен Брандт эффективно врачует закоренелых преступников, но сам страдает от ночных кошмаров. Ему кажется, что единственный способ излечиться — выкрасть тринадцать художественных шедевров из самых охраняемых музеев мира. Собрав команду из четырех своих пациентов, он грабит Лувр, галерею Тейт, Эрмитаж и Нью-Йоркский музей современного искусства, превращаясь в самого известного и преследуемого преступника. За ним гоняются итальянские мафиози, русские гангстеры, полиция, а также охотники за головами, заинтересованные в 100 млн вознаграждения. Но самый грозный противник Брандта — Майк Ковальский, частный детектив, работающий на страховые компании…

Качество: BDRip 720p
Формат: MKV

Видео: h.264,6 319 Кбит/с,1280x536
Аудио: Русский (AC3, 2 ch, 448 Кбит/с)
скриншот  скриншот  скриншот  

Общее
Уникальный идентификатор : 194949905747640848428677157481531449048 (0x92A9FC71EEF091519AFF6E0B4CDE1ED8)
Полное имя : D:\RubenBrandtCollector.2019.D.BDRip.72Op.mkv
Формат : Matroska
Версия формата : Version 2
Размер файла : 4,52 Гбайт
Продолжительность : 1 ч. 35 м.
Режим общего битрейта : Переменный
Общий поток : 6769 Кбит/сек
Дата кодирования : UTC 2019-04-21 03:30:30
Программа кодирования : mkvmerge v8.3.0 ('Over the Horizon') 64bit
Библиотека кодирования : libebml v1.3.1 + libmatroska v1.4.2

Видео
Идентификатор : 1
Формат : AVC
Формат/Информация : Advanced Video Codec
Профиль формата : High@L4.1
Параметр CABAC формата : Да
Параметр RefFrames формата : 4 кадра
Идентификатор кодека : V_MPEG4/ISO/AVC
Продолжительность : 1 ч. 35 м.
Вид битрейта : Переменный
Битрейт : 6319 Кбит/сек
Максимальный битрейт : 7500 Кбит/сек
Ширина : 1280 пикселей
Высота : 536 пикселей
Соотношение сторон : 2,40:1
Режим частоты кадров : Постоянный
Частота кадров : 23,976 (24000/1001) кадра/сек
Стандарт вещания : Component
Цветовое пространство : YUV
Субдискретизация насыщенности : 4:2:0
Битовая глубина : 8 бит
Тип развёртки : Прогрессивная
Бит/(Пиксели*Кадры) : 0.376
Размер потока : 4,13 Гбайт (91%)
Default : Да
Forced : Нет
Цветовой диапазон : Limited
Основные цвета : BT.709
Характеристики трансфера : BT.709
Коэффициенты матрицы : BT.709

Аудио
Идентификатор : 2
Формат : AC-3
Формат/Информация : Audio Coding 3
Расширение режима : CM (complete main)
Параметр Endianness формата : Big
Идентификатор кодека : A_AC3
Продолжительность : 1 ч. 35 м.
Вид битрейта : Постоянный
Битрейт : 448 Кбит/сек
Каналы : 2 канала
Расположение каналов : Front: L R
Частота : 48,0 КГц
Частота кадров : 31,250 кадров/сек (1536 spf)
Метод сжатия : С потерями
Размер потока : 307 Мбайт (7%)
Default : Да
Forced : Нет

pb.wtf



Скачать Ограбление по Фрейду через торрент https://c.radikal.ru/c22/1904/c6/eed91b13756d.jpg Скачать фильм Ограбление по Фрейду через торрент бесплантно в хорошем качестве Описание: Психоаналитик экстра-класса и рафинированный эстет Рубен Брандт эффективно врачует закоренелых преступников, но сам страдает от ... 7.8 10 4
Торрент: Зарегистрирован [2019-04-21 11:04] · скачан: 37 раз
Статус: # сомнительно
Размер: 4.52 GB
Как cкачать? Как скачать Ограбление по Фрейду через торрент | qTorrent

% Раздел Тема Автор DL S | L
# Фильмы (мультфильмы) cо спонсором показа (Новинки AVI/MKV) [ 8 GB ] Ограбление по Фрейду / Ruben Brandt Collector [2018 Мультфильм BDRip 1080p] DUB [Line] bober100 Скачать
1 | 0
Иностранные мультфильмы [ 1.42 GB ] Ограбление по Фрейду / Ruben Brandt Collector [2018 Мультфильм BDRip] bober100 Скачать
1 | 0
T Фильмы с авторской озвучкой [ 11.46 GB ] Ограбление по Фрейду / Ruben Brandt Collector [2018 Мультфильм BDRip 1080p] AVO [BadBajo] bober100 Скачать
1 | 0

28-11-2019 20:33  

Отключить всю рекламу на сайте

    Дорогой пользователь! Огромная просьба, поблагодарите релизера, оцените раздачу и оставьте свои комментарий, если Вы скачали Ограбление по Фрейду через торрент бесплатно! Внесите свою лепту в развитие PiratBit!
    Комментировать посты могут только пользователи прошедшие не сложную регистрацию
    Показать сообщения:    

    Ограбление по Фрейду через торрент
    Скачать бесплатно Ограбление по Фрейду
    Ограбление по Фрейду скачать торрент
    Ограбление по Фрейду смотреть онлайн
    Cкачать фильм Ограбление по Фрейду бесплатно
    Ограбление по Фрейду скачать торрент в хорошем качестве
    Ограбление по Фрейду смотреть онлайн бесплатно в хорошем качестве


    Вы не можете начинать темы
    Вы не можете отвечать на сообщения
    Вы не можете редактировать свои сообщения
    Вы не можете удалять свои сообщения
    Вы не можете голосовать в опросах
    Вы не можете прикреплять файлы к сообщениям
    Вы можете скачивать файлы