Ссылка на приватное зеркало всего за 1$. Внимание количество ограничено!!!

OK

1+1

iTunes

мы

OK

1

WEB-DLRip

Джокер

Пифагор

Ведьмак / The Witcher сериал

Лицензия

ПШазам

ОК

Оно 2

iTunes

30
pack

Вам бонус

ВАЖНО

!!Акция!!

Alien_RageХит недели

RePack

Resident Evil 21

ИГРА 18+

pack

RePack

jed

RePack

fifa19

RePack

Assassins Creed: Odyssey

RePack

NEED FOR SPEED™ PAYBACK

4 сезон

9 сезон

Бесстыжие 9 сезон

Все сериалы

все сериалы на PB.wtf

RePack

FAR CRY 5
  

Без семьи / Rémi sans famille (Антуан Блоссье) [2018, драма, комедия, WEB-DL 720p] MVO ["Синема УС"] pb.wtf

Без семьи через торрент pb.wtf

Размер: 4.39 GB | Добавлен: 9 мес. назад | Торрент скачан:56 раз
Скачать  

21-04-2019 11:28 Без семьи Скачать торрент  

Без семьи / Rémi sans famille Год выпуска: 2018
Страна: Франция
Жанр: драма, комедия
Продолжительность: 01:48:52
Перевод: Любительский (многоголосый) | "Синема УС"
Субтитры: отсутствуют

Режиссер: Антуан Блоссье

rating

В ролях:

Даниель Отой, Малом Пакуин, Виржини Ледуайен, Жонатан Заккаи, Жак Перрен, Людивин Санье, Альбан Массон, Саймон Армстронг, Жером Кашон, Лиза Шабо

Описание:

Маленький сирота Реми в 10-летнем возрасте попадает к пожилому бродячему артисту и отправляется в захватывающее путешествие по Франции XIX века. Реми учится зарабатывать на хлеб пением, заводит дружбу с верными спутниками-животными, а также раскрывает тайну своего происхождения.

Качество: WEB-DL 720p
Формат: MKV

Видео: 5 388 Кбит/с, 1280x536
Аудио: Русский, (AC3, 2 ch, 384 Кбит/с)
скриншот  скриншот  скриншот  

Общее
Уникальный идентификатор : 182332754382780263637423560621978077588 (0x892C02DAC80CEB819A5A8EA4B40CC994)
Полное имя : D:\Remi.sans.Famille.2018.P.WEB-DL.72Op.mkv
Формат : Matroska
Версия формата : Version 2
Размер файла : 4,39 Гбайт
Продолжительность : 1 ч. 48 м.
Режим общего битрейта : Переменный
Общий поток : 5774 Кбит/сек
Дата кодирования : UTC 2019-04-19 23:45:18
Программа кодирования : mkvmerge v8.3.0 ('Over the Horizon') 64bit
Библиотека кодирования : libebml v1.3.1 + libmatroska v1.4.2

Видео
Идентификатор : 1
Формат : AVC
Формат/Информация : Advanced Video Codec
Профиль формата : High@L4.1
Параметр CABAC формата : Да
Параметр RefFrames формата : 4 кадра
Идентификатор кодека : V_MPEG4/ISO/AVC
Продолжительность : 1 ч. 48 м.
Вид битрейта : Переменный
Битрейт : 5388 Кбит/сек
Максимальный битрейт : 6000 Кбит/сек
Ширина : 1280 пикселей
Высота : 536 пикселей
Соотношение сторон : 2,40:1
Режим частоты кадров : Постоянный
Частота кадров : 23,976 (24000/1001) кадра/сек
Стандарт вещания : Component
Цветовое пространство : YUV
Субдискретизация насыщенности : 4:2:0
Битовая глубина : 8 бит
Тип развёртки : Прогрессивная
Бит/(Пиксели*Кадры) : 0.321
Размер потока : 4,01 Гбайт (91%)
Default : Да
Forced : Нет
Цветовой диапазон : Limited
Основные цвета : BT.709
Характеристики трансфера : BT.709
Коэффициенты матрицы : BT.709

Аудио
Идентификатор : 2
Формат : AC-3
Формат/Информация : Audio Coding 3
Расширение режима : CM (complete main)
Параметр Endianness формата : Big
Идентификатор кодека : A_AC3
Продолжительность : 1 ч. 48 м.
Вид битрейта : Постоянный
Битрейт : 384 Кбит/сек
Каналы : 2 канала
Расположение каналов : Front: L R
Частота : 48,0 КГц
Частота кадров : 31,250 кадров/сек (1536 spf)
Метод сжатия : С потерями
Размер потока : 299 Мбайт (7%)
Default : Да
Forced : Нет

pb.wtf



Скачать Без семьи через торрент https://a.radikal.ru/a14/1904/c0/a91a327c0a31.jpg Скачать фильм Без семьи через торрент бесплантно в хорошем качестве Описание: Маленький сирота Реми в 10-летнем возрасте попадает к пожилому бродячему артисту и отправляется в захватывающее путешествие по ... 10 10 3
Торрент: Зарегистрирован [2019-04-21 11:28] · скачан: 56 раз
Статус: T временная
Размер: 4.39 GB
Как cкачать? Как скачать Без семьи через торрент | qTorrent

% Раздел Тема Автор DL S | L
Фильмы 2018 [DVDrip, WEB-DLRip, HDrip] (DUB, MVO) [ 1.41 GB ] Реми / Без семьи Реми без семьи / Rémi sans famille [2018 BDRip] bober100 Скачать
5 | 0
Фильмы [HD 720p, 1080p] (Хороший звук DUB, MVO) [ 4.56 GB ] Реми / Без семьи Реми без семьи / Rémi sans famille [2018 BDRip 720p] bober100 Скачать
3 | 0
Фильмы [HD 720p, 1080p] (Хороший звук DUB, MVO) [ 8.69 GB ] Реми / Без семьи Реми без семьи / Rémi sans famille [2018 BDRip 1080p] bober100 Скачать
5 | 0
Фильмы (Blu-ray, BD-Remux, HDDVD) [ 25.66 GB ] Реми / Без семьи Реми без семьи / Rémi sans famille [2018 BD Remux 1080p] bober100 Скачать
1 | 0
T Фильмы (мультфильмы) cо спонсором показа (Новинки AVI/MKV) [ 1.37 GB ] Без семьи / Rémi sans famille [2018 WEB-DLRip] MVO ["Синема УС"] bober100 Скачать
1 | 0

28-11-2019 20:33  

Отключить всю рекламу на сайте

    Дорогой пользователь! Огромная просьба, поблагодарите релизера, оцените раздачу и оставьте свои комментарий, если Вы скачали Без семьи через торрент бесплатно! Внесите свою лепту в развитие PiratBit!
    Комментировать посты могут только пользователи прошедшие не сложную регистрацию
    Показать сообщения:    

    Без семьи через торрент
    Скачать бесплатно Без семьи
    Без семьи скачать торрент
    Без семьи смотреть онлайн
    Cкачать фильм Без семьи бесплатно
    Без семьи скачать торрент в хорошем качестве
    Без семьи смотреть онлайн бесплатно в хорошем качестве


    Вы не можете начинать темы
    Вы не можете отвечать на сообщения
    Вы не можете редактировать свои сообщения
    Вы не можете удалять свои сообщения
    Вы не можете голосовать в опросах
    Вы не можете прикреплять файлы к сообщениям
    Вы можете скачивать файлы