Ссылка на приватное зеркало всего за 1$. Внимание количество ограничено!!!

OK

1+1

iTunes

мы

OK

1

WEB-DLRip

Джокер

Пифагор

Ведьмак / The Witcher сериал

iTunes

ПШазам

ОК

Оно 2

iTunes

30
pack

Вам бонус

ВАЖНО

!!Акция!!

Alien_RageХит недели

RePack

Resident Evil 21

ИГРА 18+

pack

RePack

jed

RePack

fifa19

RePack

Assassins Creed: Odyssey

RePack

NEED FOR SPEED™ PAYBACK

4 сезон

9 сезон

Бесстыжие 9 сезон

Все сериалы

все сериалы на PB.wtf

RePack

FAR CRY 5
  

Дагенхам / Dagenham (Джо Моррис) [2018, Триллер, WEB-DL 720p] MVO ["Синема УС"] pb.wtf

Дагенхам через торрент pb.wtf

Размер: 4.24 GB | Добавлен: 9 мес. назад | Торрент скачан:10 раз
Скачать  

21-04-2019 11:56 Дагенхам Скачать торрент  

Дагенхам / Dagenham Год выпуска: 2018
Страна: Великобритания
Жанр: Триллер
Продолжительность: 01:47:06
Перевод: Любительский (многоголосый) | "Синема УС"
Субтитры: отсутствуют

Режиссер: Джо Моррис

rating

В ролях: Дорали Роза, Брэдли Даути, Николаос Брахимлари, Дин Робертс, Райан Уинсли, Крис Линей, Лили Ньюмарк, Тим Боуи, Ллойд Спарси, Джемма Пейджет

Описание: В городке Дагенхэм, графство Эссекс, семейная драма сталкивается с миром криминала. Когда местный бандит и наркодилер Билли Марони выходит из тюрьмы, его бывшей сожительнице Ким приходится решать, хочет ли она снова впустить его в свою жизнь. Но освобождение Билли запускает целую цепочку событий, которая втянет её дочь Ким и всех их близких, нравится им это или нет.

Качество: WEB-DL 720p
Формат: MKV

Видео: h.264,5 288 Кбит/с, 1280x536
Аудио#1: Русский, (AC3, 2 ch, 384 Кбит/с)
скриншот  скриншот  скриншот  

Общее
Уникальный идентификатор : 177921308066444984654188502284989756277 (0x85DA65C23AFDE8088FE89C0FBCA1F375)
Полное имя : D:\Dagenham.2018.P.WEB-DL.72Op.mkv
Формат : Matroska
Версия формата : Version 2
Размер файла : 4,24 Гбайт
Продолжительность : 1 ч. 47 м.
Режим общего битрейта : Переменный
Общий поток : 5674 Кбит/сек
Дата кодирования : UTC 2019-04-21 03:39:28
Программа кодирования : mkvmerge v8.3.0 ('Over the Horizon') 64bit
Библиотека кодирования : libebml v1.3.1 + libmatroska v1.4.2

Видео
Идентификатор : 1
Формат : AVC
Формат/Информация : Advanced Video Codec
Профиль формата : High@L4.1
Параметр CABAC формата : Да
Параметр RefFrames формата : 4 кадра
Идентификатор кодека : V_MPEG4/ISO/AVC
Продолжительность : 1 ч. 47 м.
Вид битрейта : Переменный
Битрейт : 5288 Кбит/сек
Максимальный битрейт : 6000 Кбит/сек
Ширина : 1280 пикселей
Высота : 536 пикселей
Соотношение сторон : 2,40:1
Режим частоты кадров : Постоянный
Частота кадров : 23,976 (24000/1001) кадра/сек
Стандарт вещания : Component
Цветовое пространство : YUV
Субдискретизация насыщенности : 4:2:0
Битовая глубина : 8 бит
Тип развёртки : Прогрессивная
Бит/(Пиксели*Кадры) : 0.315
Размер потока : 3,87 Гбайт (91%)
Default : Да
Forced : Нет
Цветовой диапазон : Limited
Основные цвета : BT.709
Характеристики трансфера : BT.709
Коэффициенты матрицы : BT.709

Аудио
Идентификатор : 2
Формат : AC-3
Формат/Информация : Audio Coding 3
Расширение режима : CM (complete main)
Параметр Endianness формата : Big
Идентификатор кодека : A_AC3
Продолжительность : 1 ч. 47 м.
Вид битрейта : Постоянный
Битрейт : 384 Кбит/сек
Каналы : 2 канала
Расположение каналов : Front: L R
Частота : 48,0 КГц
Частота кадров : 31,250 кадров/сек (1536 spf)
Метод сжатия : С потерями
Размер потока : 294 Мбайт (7%)
Default : Да
Forced : Нет

pb.wtf



Скачать Дагенхам через торрент https://b.radikal.ru/b27/1904/4a/1fe014dafa45.jpg Скачать фильм Дагенхам через торрент бесплантно в хорошем качестве Описание: В городке Дагенхэм, графство Эссекс, семейная драма сталкивается с миром криминала. Когда местный бандит и наркодилер Билли ... 7 10 3
Торрент: Зарегистрирован [2019-04-21 11:56] · скачан: 10 раз
Статус: T временная
Размер: 4.24 GB
Как cкачать? Как скачать Дагенхам через торрент | qTorrent

% Раздел Тема Автор DL S | L
T Фильмы (мультфильмы) cо спонсором показа (Новинки AVI/MKV) [ 1.37 GB ] Дагенхам / Dagenham [2018 WEB-DLRip] MVO ["Синема УС"] bober100 Скачать
1 | 0

28-11-2019 20:33  

Отключить всю рекламу на сайте

    Дорогой пользователь! Огромная просьба, поблагодарите релизера, оцените раздачу и оставьте свои комментарий, если Вы скачали Дагенхам через торрент бесплатно! Внесите свою лепту в развитие PiratBit!
    Комментировать посты могут только пользователи прошедшие не сложную регистрацию
    Показать сообщения:    

    Дагенхам через торрент
    Скачать бесплатно Дагенхам
    Дагенхам скачать торрент
    Дагенхам смотреть онлайн
    Cкачать фильм Дагенхам бесплатно
    Дагенхам скачать торрент в хорошем качестве
    Дагенхам смотреть онлайн бесплатно в хорошем качестве


    Вы не можете начинать темы
    Вы не можете отвечать на сообщения
    Вы не можете редактировать свои сообщения
    Вы не можете удалять свои сообщения
    Вы не можете голосовать в опросах
    Вы не можете прикреплять файлы к сообщениям
    Вы можете скачивать файлы