Ссылка на приватное зеркало всего за 1$. Внимание количество ограничено!!!

OK

1+1

iTunes

мы

OK

1

WEB-DLRip

Джокер

Пифагор

Ведьмак / The Witcher сериал

iTunes

ПШазам

ОК

Оно 2

iTunes

30
pack

Вам бонус

ВАЖНО

!!Акция!!

Alien_RageХит недели

RePack

Resident Evil 21

ИГРА 18+

pack

RePack

jed

RePack

fifa19

RePack

Assassins Creed: Odyssey

RePack

NEED FOR SPEED™ PAYBACK

4 сезон

9 сезон

Бесстыжие 9 сезон

Все сериалы

все сериалы на PB.wtf

RePack

FAR CRY 5
  

Чёртова ночь / Hell of a Night (Брайан Чайлдс) [2017, ужасы, триллер, WEB-DL 720p] MVO ["Синема УС"] pb.wtf

Чёртова ночь через торрент pb.wtf

Размер: 3.42 GB | Добавлен: 9 мес. назад | Торрент скачан:23 раза
Скачать  

21-04-2019 12:15 Чёртова ночь Скачать торрент  

Чёртова ночь / Hell of a NightГод выпуска: 2017
Страна: США
Жанр: ужасы, триллер
Продолжительность: 01:25:06
Перевод: Любительский (многоголосый) | "Синема УС"
Субтитры: отсутствуют

Режиссер: Брайан Чайлдс

rating

В ролях: Рэйчел Хеврин, Грэйс Пауэлл, Элла Тейлор, Кристин МакКензи, Джордайн Виссер, Дебора Кей Хукер, Кайли Кинг, Тори Карю, Алисса Копли, Роберт Хукер

Описание: После переезда в новый город молодая студентка в одиночестве отправляется загород на входные, но вскоре понимает, что она не одна и ей придётся сражаться за свою жизнь.

Качество: WEB-DL 720p
Формат: MKV

Видео: h.264,5 368 Кбит/с, 1280x530
Аудио: Русский, (AC3, 2 ch, 384 Кбит/с)
скриншот  скриншот  скриншот  

Общее
Уникальный идентификатор : 188386137606129845053856969579291478140 (0x8DB9D9B0B06172A5BC8935B7CBD0087C)
Полное имя : D:\Hell.Of.A.Night.2019.P.WEB-DL.72Op.mkv
Формат : Matroska
Версия формата : Version 2
Размер файла : 3,42 Гбайт
Продолжительность : 1 ч. 25 м.
Режим общего битрейта : Переменный
Общий поток : 5753 Кбит/сек
Дата кодирования : UTC 2019-04-21 03:42:12
Программа кодирования : mkvmerge v8.3.0 ('Over the Horizon') 64bit
Библиотека кодирования : libebml v1.3.1 + libmatroska v1.4.2

Видео
Идентификатор : 1
Формат : AVC
Формат/Информация : Advanced Video Codec
Профиль формата : High@L4.1
Параметр CABAC формата : Да
Параметр RefFrames формата : 4 кадра
Идентификатор кодека : V_MPEG4/ISO/AVC
Продолжительность : 1 ч. 25 м.
Вид битрейта : Переменный
Битрейт : 5368 Кбит/сек
Максимальный битрейт : 6000 Кбит/сек
Ширина : 1280 пикселей
Высота : 530 пикселей
Соотношение сторон : 2,40:1
Режим частоты кадров : Постоянный
Частота кадров : 23,976 (24000/1001) кадра/сек
Стандарт вещания : Component
Цветовое пространство : YUV
Субдискретизация насыщенности : 4:2:0
Битовая глубина : 8 бит
Тип развёртки : Прогрессивная
Бит/(Пиксели*Кадры) : 0.323
Размер потока : 3,12 Гбайт (91%)
Default : Да
Forced : Нет
Цветовой диапазон : Limited
Основные цвета : BT.709
Характеристики трансфера : BT.709
Коэффициенты матрицы : BT.709

Аудио
Идентификатор : 2
Формат : AC-3
Формат/Информация : Audio Coding 3
Расширение режима : CM (complete main)
Параметр Endianness формата : Big
Идентификатор кодека : A_AC3
Продолжительность : 1 ч. 25 м.
Вид битрейта : Постоянный
Битрейт : 384 Кбит/сек
Каналы : 2 канала
Расположение каналов : Front: L R
Частота : 48,0 КГц
Частота кадров : 31,250 кадров/сек (1536 spf)
Метод сжатия : С потерями
Размер потока : 234 Мбайт (7%)
Default : Да
Forced : Нет

pb.wtf



Скачать Чёртова ночь через торрент https://c.radikal.ru/c40/1904/ec/549cc0563324.jpg Скачать фильм Чёртова ночь через торрент бесплантно в хорошем качестве Описание: После переезда в новый город молодая студентка в одиночестве отправляется загород на входные, но вскоре понимает, что она не одна ... 8.2 10 5
Торрент: Зарегистрирован [2019-04-21 12:15] · скачан: 23 раз
Статус: T временная
Размер: 3.42 GB
Как cкачать? Как скачать Чёртова ночь через торрент | qTorrent

% Раздел Тема Автор DL S | L
T Фильмы (мультфильмы) cо спонсором показа (Новинки AVI/MKV) [ 1.37 GB ] Чёртова ночь / Hell of a Night [2017 WEB-DLRip] MVO ["Синема УС"] bober100 Скачать
1 | 0

28-11-2019 20:33  

Отключить всю рекламу на сайте

    Дорогой пользователь! Огромная просьба, поблагодарите релизера, оцените раздачу и оставьте свои комментарий, если Вы скачали Чёртова ночь через торрент бесплатно! Внесите свою лепту в развитие PiratBit!
    Комментировать посты могут только пользователи прошедшие не сложную регистрацию
    Показать сообщения:    

    Чёртова ночь через торрент
    Скачать бесплатно Чёртова ночь
    Чёртова ночь скачать торрент
    Чёртова ночь смотреть онлайн
    Cкачать фильм Чёртова ночь бесплатно
    Чёртова ночь скачать торрент в хорошем качестве
    Чёртова ночь смотреть онлайн бесплатно в хорошем качестве


    Вы не можете начинать темы
    Вы не можете отвечать на сообщения
    Вы не можете редактировать свои сообщения
    Вы не можете удалять свои сообщения
    Вы не можете голосовать в опросах
    Вы не можете прикреплять файлы к сообщениям
    Вы можете скачивать файлы