2 сезон

iTunes

1 сезон

1

iTunes

iTunes

iTunes

1 сезон

RePack

30

ИГРА 18+

pack

ВАЖНО

!!Акция!!

Alien_RageХит недели

RePack

MK11
pack

Забери бонус

RePack

jed

!!Акция!!

Alien_Rage

RePack

fifa19

RePack

Assassins Creed: Odyssey

RePack

NEED FOR SPEED™ PAYBACK

4 сезон

9 сезон

Бесстыжие 9 сезон

Все сериалы

все сериалы на PB.wtf

RePack

FAR CRY 5
  

Смерш / Серии: 1-12 из 12 (Олег Фомин) [2019, Детектив, боевик, история, военный, драма, WEB-DLRip] pb.wtf

Смерш через торрент pb.wtf

Размер: 6.8 GB | Добавлен: 1 год 6 мес. назад | Торрент скачан:248 раз
Скачать  

21-04-2019 14:53 Смерш Скачать торрент  

Смерш Год выпуска: 2019
Страна: Россия
Жанр: Детектив, боевик, история, военный, драма
Продолжительность: ~ 00:48:00 серия
Субтитры: отсутствуют

Режиссер: Олег Фомин



В ролях:

Алексей Макаров, Владислав Котлярский, Олег Фомин, Леонид Громов, Николай Козак, Александр Обласов, Анатолий Гущин, Александра Богданова, Евгения Малахова, Светлана Степанковская, Денис Константинов, Дмитрий Лавров, Максим Литовченко, Михаил Дорожкин, Андрей Пискарёв, Олег Мазуров, Артём Григорьев, Алексей Овсянников, Дмитрий Первушин, Алексей Сергеев, Александр Алексеев, Ольга Веникова, Юрий Анпилогов, Сослан Фидаров, Евгений Мундум, Сергей Шарифуллин

Описание:

История противостояния секретной разведслужбы СССР и Третьего Рейха в годы Великой Отечественной войны. В центре сюжета — судьба офицера Красной армии Георгия Волкова, который ведёт ожесточённую борьбу со своим заклятым врагом — агентом Абвера Конрадом фон Бютцевом. История начинается 21 июня 1941 года. Волков везёт в Советский Союз партию изумрудов по торговому договору между СССР и Германией, а также секретные документы, ценность которых выше любых драгоценных камней. Начинается война. Поезд, в котором едет Волков, захватывают немцы. Становится ясно, что ради важных агентурных сведений Бютцев готов пойти на что угодно…

Качество: WEB-DLRip
Формат: AVI

Видео: XviD, ~ 1600 Кбит/с, 720x304
Аудио: AC3, 2 ch, 192 Кбит/с
скриншот  скриншот  скриншот  скриншот  скриншот  

General
Complete name : Downloads\Смерш.2018.WEB-DLRip\01. Смерш.2018.WEB-DLRip. Files-x.avi
Format : AVI
Format/Info : Audio Video Interleave
File size : 587 MiB
Duration : 45mn 31s
Overall bit rate : 1 802 Kbps
Writing application : VirtualDubMod 1.5.10.3 | www.virtualdub-fr.org || (build 2550/release)
Writing library : VirtualDubMod build 2550/release
Video #0
ID : 0
Format : MPEG-4 Visual
Format profile : Advanced Simple@L5
Format settings, BVOP : 1
Format settings, QPel : No
Format settings, GMC : No warppoints
Format settings, Matrix : Custom
Codec ID : XVID
Codec ID/Hint : XviD
Duration : 45mn 31s
Bit rate : 1 600 Kbps
Width : 720 pixels
Height : 304 pixels
Display aspect ratio : 2.35:1
Frame rate : 25.000 fps
Color space : YUV
Chroma subsampling : 4:2:0
Bit depth : 8 bits
Scan type : Progressive
Compression mode : Lossy
Bits/(Pixel*Frame) : 0.292
Stream size : 521 MiB (89%)
Writing library : XviD 73
Audio #1
ID : 1
Format : AC-3
Format/Info : Audio Coding 3
Mode extension : CM (complete main)
Format settings, Endianness : Big
Codec ID : 2000
Duration : 45mn 31s
Bit rate mode : Constant
Bit rate : 192 Kbps
Channel(s) : 2 channels
Channel positions : Front: L R
Sampling rate : 48.0 KHz
Bit depth : 16 bits
Compression mode : Lossy
Stream size : 62.5 MiB (11%)
Alignment : Split accross interleaves
Interleave, duration : 40 ms (1.00 video frame)
Interleave, preload duration : 500 ms

Внимание! Раздача ведётся путём добавления новых серий; при каждом добавлении создаётся новый торрент.
Чтобы начать докачку новой серии, пользователям необходимо сделать следующее:
1. Остановить скачивание;
2. Удалить старый торрент у себя из клиента (старые серии удалять не надо);
3. Скачать новый торрент и запустить его у себя в клиенте вместо старого, при этом указать клиенту путь в старую папку куда и должно происходить скачивание новых серий. Ваш клиент при этом должен произвести хеширование (проверку) старой папки и будет докачивать только те серии, которых у вас ещё нет. Старые серии при этом не удаляются, а продолжают раздаваться! Eсли вы уже удалили старые серии, то предотвратить повторную закачку старых серий можно, отжав галочку в соответствующих местах при запуске нового торрента.
pb.wtf



Скачать Смерш через торрент https://i109.fastpic.ru/big/2019/0421/98/5658fa46a2fcf9e4cb6cf3c84a9eeb98.jpg Скачать фильм Смерш через торрент бесплантно в хорошем качестве Описание: История противостояния секретной разведслужбы СССР и Третьего Рейха в годы Великой Отечественной войны. В центре сюжета — судьба ... 9.6 10 16
Торрент: Зарегистрирован [2019-04-29 17:43] · скачан: 248 раз
Статус: √ проверено
Размер: 6.8 GB
Как cкачать? Как скачать Смерш через торрент | qTorrent

% Раздел Тема Автор DL S | L
Наши сериалы [ 20.06 GB ] Смерш / Серии: 1-12 из 12 [2019 история военный WEB-DL 1080p] bober100 Скачать
1 | 0
Наши сериалы [ 13.09 GB ] Смерш / Серии: 1-12 из 12 [2019 история военный WEB-DL 720p] bober100 Скачать
1 | 0
Наши сериалы [ 8.28 GB ] Смерш / Серии: 1-12 из 12 [2019 история военный HDTVRip-AVC] aleksan55 Скачать
1 | 0
Наши сериалы [ 6.76 GB ] Смерш / Серии: 1-12 из 12 [2019 история военный WEB-DLRip-AVC] bober100 Скачать
1 | 0

28-11-2019 20:33  

Отключить всю рекламу на сайте

    Дорогой пользователь! Огромная просьба, поблагодарите релизера, оцените раздачу и оставьте свои комментарий, если Вы скачали Смерш через торрент бесплатно! Внесите свою лепту в развитие PiratBit!
    Комментировать посты могут только пользователи прошедшие не сложную регистрацию
    Показать сообщения:    

    Смерш через торрент
    Скачать бесплатно Смерш
    Смерш скачать торрент
    Смерш смотреть онлайн
    Cкачать фильм Смерш бесплатно
    Смерш скачать торрент в хорошем качестве
    Смерш смотреть онлайн бесплатно в хорошем качестве


    Вы не можете начинать темы
    Вы не можете отвечать на сообщения
    Вы не можете редактировать свои сообщения
    Вы не можете удалять свои сообщения
    Вы не можете голосовать в опросах
    Вы не можете прикреплять файлы к сообщениям
    Вы можете скачивать файлы