Ссылка на приватное зеркало нашего сайта всего за 1$. Внимание количество ограничено!!!

2 сезон

iTunes

1 сезон

1

2 сезон

2 сезон

iTunes

1 сезон

RePack

30

Ultimate

ВАЖНО

ИГРА 18+

pack

RePack

MK11
pack

Забери бонус

RePack

jed

!!Акция!!

Alien_Rage

RePack

fifa19

RePack

Assassins Creed: Odyssey

RePack

NEED FOR SPEED™ PAYBACK

4 сезон

9 сезон

Бесстыжие 9 сезон

Все сериалы

все сериалы на PB.wtf

RePack

FAR CRY 5
  

Valkyria - Tierra Hostil - 2018/ FLAC/ image +.cue/ lossless/ Heavy, Power Metal pb.wtf

Valkyria - Tierra Hostil - 2018 через торрент pb.wtf

Размер: 410 MB | Добавлен: 1 год 7 мес. назад | Торрент скачан:10 раз
Скачать  

21-04-2019 15:33 Valkyria - Tierra Hostil - 2018 Скачать торрент  


Valkyria - Tierra Hostil


Год издания: 2018
Страна: Spain
Жанр: Heavy, Power Metal
Продолжительность: 00:47:50
Лейбл издания: Fighter Records
Страна-выпуска диска: Spain
Номер по каталогу: FIGHT 024 CD
Формат: FLAC
Битрейт аудио: Lossless
Тип рипа: image +.cue
Наличие сканов в содержимом раздачи: да


01. Codigo De Honor (6:07)
02. Abatido (3:59)
03. Tierra Hostil (6:01)
04. Rencor (4:44)
05. Selenelion (5:23)
06. Identidad Perdida (6:01)
07. Vida Eterna (4:58)
08. Ecos Del Manana (5:10)
09. Dunas De Sal (0:24)
10. Tuareg (5:01)

Код:

Exact Audio Copy V1.3 from 2. September 2016

EAC extraction logfile from 3. December 2018, 19:03

Valkyria / Tierra Hostil

Used drive  : ATAPI   iHAS122   W   Adapter: 2  ID: 0

Read mode               : Secure
Utilize accurate stream : Yes
Defeat audio cache      : Yes
Make use of C2 pointers : No

Read offset correction                      : 48
Overread into Lead-In and Lead-Out          : No
Fill up missing offset samples with silence : Yes
Delete leading and trailing silent blocks   : No
Null samples used in CRC calculations       : Yes
Used interface                              : Installed external ASPI interface

Used output format              : User Defined Encoder
Selected bitrate                : 1024 kBit/s
Quality                         : High
Add ID3 tag                     : No
Command line compressor         : C:\Program Files\FLAC\flac.exe
Additional command line options : -V -8 -T "Date=%year%" -T "Genre=%genre%" -T"COMMENT=Ripped by  Ilijan" -8 -V %source%

TOC of the extracted CD

     Track |   Start  |  Length  | Start sector | End sector
    ---------------------------------------------------------
        1  |  0:00.00 |  6:07.33 |         0    |    27557
        2  |  6:07.33 |  3:59.11 |     27558    |    45493
        3  | 10:06.44 |  6:00.45 |     45494    |    72538
        4  | 16:07.14 |  4:44.14 |     72539    |    93852
        5  | 20:51.28 |  5:23.31 |     93853    |   118108
        6  | 26:14.59 |  6:01.16 |    118109    |   145199
        7  | 32:16.00 |  4:58.10 |    145200    |   167559
        8  | 37:14.10 |  5:10.11 |    167560    |   190820
        9  | 42:24.21 |  0:24.22 |    190821    |   192642
       10  | 42:48.43 |  5:01.12 |    192643    |   215229

Range status and errors

Selected range

     Filename D:\Valkyria - Tierra Hostil.wav

     Peak level 99.7 %
     Extraction speed 3.9 X
     Range quality 100.0 %
     Test CRC 93EE6B30
     Copy CRC 93EE6B30
     Copy OK

No errors occurred

AccurateRip summary

Track  1  not present in database
Track  2  not present in database
Track  3  not present in database
Track  4  not present in database
Track  5  not present in database
Track  6  not present in database
Track  7  not present in database
Track  8  not present in database
Track  9  not present in database
Track 10  not present in database

None of the tracks are present in the AccurateRip database

End of status report

Код:

REM GENRE "Heavy/Power Metal"
REM DATE 2018
REM DISCID 990B350A
REM COMMENT "ExactAudioCopy v1.3"
PERFORMER "Valkyria"
TITLE "Tierra Hostil"
FILE "Valkyria - Tierra Hostil.flac" WAVE
  TRACK 01 AUDIO
    TITLE "Codigo De Honor"
    PERFORMER "Valkyria"
    INDEX 01 00:00:00
  TRACK 02 AUDIO
    TITLE "Abatido"
    PERFORMER "Valkyria"
    INDEX 01 06:07:33
  TRACK 03 AUDIO
    TITLE "Tierra Hostil"
    PERFORMER "Valkyria"
    INDEX 01 10:06:44
  TRACK 04 AUDIO
    TITLE "Rencor"
    PERFORMER "Valkyria"
    INDEX 01 16:07:14
  TRACK 05 AUDIO
    TITLE "Selenelion"
    PERFORMER "Valkyria"
    INDEX 01 20:51:28
  TRACK 06 AUDIO
    TITLE "Identidad Perdida"
    PERFORMER "Valkyria"
    INDEX 01 26:14:59
  TRACK 07 AUDIO
    TITLE "Vida Eterna"
    PERFORMER "Valkyria"
    INDEX 01 32:16:00
  TRACK 08 AUDIO
    TITLE "Ecos Del Manana"
    PERFORMER "Valkyria"
    INDEX 01 37:14:10
  TRACK 09 AUDIO
    TITLE "Dunas De Sal"
    PERFORMER "Valkyria"
    INDEX 01 42:24:21
  TRACK 10 AUDIO
    TITLE "Tuareg"
    PERFORMER "Valkyria"
    INDEX 01 42:48:43






pb.wtf



Скачать Valkyria - Tierra Hostil - 2018 через торрент http://i109.fastpic.ru/big/2019/0421/33/69b94dc184af3592cda629c5736c4833.png Скачать фильм Valkyria - Tierra Hostil - 2018через торрент бесплантно в хорошем качестве Трэклист Codigo De Honor (6:07) Abatido (3:59) Tierra Hostil (6:01) Rencor (4:44) Selenelion (5:23) ... 10 10 1
Торрент: Зарегистрирован [2019-04-21 15:33] · скачан: 10 раз
Статус: √ проверено
Размер: 410 MB
Как cкачать? Как скачать Valkyria - Tierra Hostil - 2018 через торрент | qTorrent

28-11-2019 20:33  

Отключить всю рекламу на сайте

    Дорогой пользователь! Огромная просьба, поблагодарите релизера, оцените раздачу и оставьте свои комментарий, если Вы скачали Valkyria - Tierra Hostil - 2018 через торрент бесплатно! Внесите свою лепту в развитие PiratBit!
    Комментировать посты могут только пользователи прошедшие не сложную регистрацию
    Показать сообщения:    

    Valkyria - Tierra Hostil - 2018 через торрент
    Скачать бесплатно Valkyria - Tierra Hostil - 2018
    Valkyria - Tierra Hostil - 2018 скачать торрент
    Valkyria - Tierra Hostil - 2018 смотреть онлайн
    Cкачать фильм Valkyria - Tierra Hostil - 2018 бесплатно
    Valkyria - Tierra Hostil - 2018 скачать торрент в хорошем качестве
    Valkyria - Tierra Hostil - 2018 смотреть онлайн бесплатно в хорошем качестве


    Вы не можете начинать темы
    Вы не можете отвечать на сообщения
    Вы не можете редактировать свои сообщения
    Вы не можете удалять свои сообщения
    Вы не можете голосовать в опросах
    Вы не можете прикреплять файлы к сообщениям
    Вы можете скачивать файлы