Ссылка на приватное зеркало нашего сайта всего за 1$. Внимание количество ограничено!!!

2 сезон

iTunes

1 сезон

1

2 сезон

2 сезон

iTunes

1 сезон

RePack

30

Ultimate

ВАЖНО

ИГРА 18+

pack

RePack

MK11
pack

Забери бонус

RePack

jed

!!Акция!!

Alien_Rage

RePack

fifa19

RePack

Assassins Creed: Odyssey

RePack

NEED FOR SPEED™ PAYBACK

4 сезон

9 сезон

Бесстыжие 9 сезон

Все сериалы

все сериалы на PB.wtf

RePack

FAR CRY 5
  

Bloodline - King Vampire (Japanese Edition) - 2018/ FLAC/ image +.cue/ lossless/ Heavy, Power Metal pb.wtf

Bloodline - King Vampire через торрент pb.wtf

Размер: 556 MB | Добавлен: 1 год 7 мес. назад | Торрент скачан:6 раз
Скачать  

21-04-2019 15:38 Bloodline - King Vampire Скачать торрент  


Bloodline - King Vampire (Japanese Edition)


Год издания: 2018
Страна: Chile
Жанр: Heavy, Power Metal
Продолжительность: 01:06:02
Лейбл издания: Spiritual Beast
Страна-выпуска диска: Japan
Номер по каталогу: IUCP-16289
Формат: FLAC
Битрейт аудио: Lossless
Тип рипа: image +.cue
Наличие сканов в содержимом раздачи: да


01. Masquerade (1:52)
02. Creature Born From Pain (4:38)
03. Final Eden (4:09)
04. Forbidden (5:25)
05. King Vampire (5:03)
06. Will Of Kill (3:00)
07. Lilith (5:02)
08. Blackened Crown (5:37)
09. Shadows Of The Night (4:12)
10. Your End Is Here (4:41)
11. We Will Rise (5:51)
12. Acheronta Movebo (2:22)
13. Lilith (Spanish Version) (Bonus Track) (5:03)
14. Forbidden (Acoustic Demo Version) (Bonus Track) (5:20)
15. There (Demo Version) (Bonus Track) (3:45)

Код:

Exact Audio Copy V1.3 from 2. September 2016

EAC extraction logfile from 23. July 2018, 20:11

Bloodline / King Vampire (Japan)

Used drive  : ATAPI   iHAS122   W   Adapter: 2  ID: 0

Read mode               : Secure
Utilize accurate stream : Yes
Defeat audio cache      : Yes
Make use of C2 pointers : No

Read offset correction                      : 48
Overread into Lead-In and Lead-Out          : No
Fill up missing offset samples with silence : Yes
Delete leading and trailing silent blocks   : No
Null samples used in CRC calculations       : Yes
Used interface                              : Installed external ASPI interface

Used output format              : User Defined Encoder
Selected bitrate                : 1024 kBit/s
Quality                         : High
Add ID3 tag                     : No
Command line compressor         : C:\Program Files\FLAC\flac.exe
Additional command line options : -V -8 -T "Date=%year%" -T "Genre=%genre%" -T"COMMENT=Ripped by  Ilijan" -8 -V %source%

TOC of the extracted CD

     Track |   Start  |  Length  | Start sector | End sector
    ---------------------------------------------------------
        1  |  0:00.00 |  1:51.38 |         0    |     8362
        2  |  1:51.38 |  4:38.09 |      8363    |    29221
        3  |  6:29.47 |  4:08.52 |     29222    |    47873
        4  | 10:38.24 |  5:25.28 |     47874    |    72276
        5  | 16:03.52 |  5:03.37 |     72277    |    95038
        6  | 21:07.14 |  3:00.20 |     95039    |   108558
        7  | 24:07.34 |  5:02.21 |    108559    |   131229
        8  | 29:09.55 |  5:37.19 |    131230    |   156523
        9  | 34:46.74 |  4:12.10 |    156524    |   175433
       10  | 38:59.09 |  4:41.37 |    175434    |   196545
       11  | 43:40.46 |  5:51.14 |    196546    |   222884
       12  | 49:31.60 |  2:22.00 |    222885    |   233534
       13  | 51:53.60 |  5:02.59 |    233535    |   256243
       14  | 56:56.44 |  5:20.14 |    256244    |   280257
       15  | 62:16.58 |  3:45.31 |    280258    |   297163

Range status and errors

Selected range

     Filename D:\Bloodline - King Vampire (Japan).wav

     Peak level 98.8 %
     Extraction speed 4.3 X
     Range quality 100.0 %
     Test CRC EDE4ADD0
     Copy CRC EDE4ADD0
     Copy OK

No errors occurred

AccurateRip summary

Track  1  not present in database
Track  2  not present in database
Track  3  not present in database
Track  4  not present in database
Track  5  not present in database
Track  6  not present in database
Track  7  not present in database
Track  8  not present in database
Track  9  not present in database
Track 10  not present in database
Track 11  not present in database
Track 12  not present in database
Track 13  not present in database
Track 14  not present in database
Track 15  not present in database

None of the tracks are present in the AccurateRip database

End of status report

Код:

REM GENRE "Heavy/Power Metal"
REM DATE 2018
REM DISCID D00F7A0F
REM COMMENT "ExactAudioCopy v1.3"
PERFORMER "Bloodline"
TITLE "King Vampire (Japan)"
FILE "Bloodline - King Vampire (Japan).flac" WAVE
  TRACK 01 AUDIO
    TITLE "Masquerade"
    PERFORMER "Bloodline"
    INDEX 01 00:00:00
  TRACK 02 AUDIO
    TITLE "Creature Born From Pain"
    PERFORMER "Bloodline"
    INDEX 01 01:51:38
  TRACK 03 AUDIO
    TITLE "Final Eden"
    PERFORMER "Bloodline"
    INDEX 01 06:29:47
  TRACK 04 AUDIO
    TITLE "Forbidden"
    PERFORMER "Bloodline"
    INDEX 00 10:37:62
    INDEX 01 10:38:24
  TRACK 05 AUDIO
    TITLE "King Vampire"
    PERFORMER "Bloodline"
    INDEX 00 16:03:15
    INDEX 01 16:03:52
  TRACK 06 AUDIO
    TITLE "Will Of Kill"
    PERFORMER "Bloodline"
    INDEX 00 21:06:52
    INDEX 01 21:07:14
  TRACK 07 AUDIO
    TITLE "Lilith"
    PERFORMER "Bloodline"
    INDEX 00 24:06:72
    INDEX 01 24:07:34
  TRACK 08 AUDIO
    TITLE "Blackened Crown"
    PERFORMER "Bloodline"
    INDEX 00 29:09:18
    INDEX 01 29:09:55
  TRACK 09 AUDIO
    TITLE "Shadows Of The Night"
    PERFORMER "Bloodline"
    INDEX 00 34:46:37
    INDEX 01 34:46:74
  TRACK 10 AUDIO
    TITLE "Your End Is Here"
    PERFORMER "Bloodline"
    INDEX 00 38:58:47
    INDEX 01 38:59:09
  TRACK 11 AUDIO
    TITLE "We Will Rise"
    PERFORMER "Bloodline"
    INDEX 00 43:40:09
    INDEX 01 43:40:46
    INDEX 02 49:00:27
  TRACK 12 AUDIO
    TITLE "Acheronta Movebo"
    PERFORMER "Bloodline"
    INDEX 00 49:31:23
    INDEX 01 49:31:60
  TRACK 13 AUDIO
    TITLE "Lilith (Spanish Version) (Bonus Track)"
    PERFORMER "Bloodline"
    INDEX 00 51:51:60
    INDEX 01 51:53:60
  TRACK 14 AUDIO
    TITLE "Forbidden (Acoustic Demo Version) (Bonus Track)"
    PERFORMER "Bloodline"
    INDEX 00 56:55:44
    INDEX 01 56:56:44
  TRACK 15 AUDIO
    TITLE "There (Demo Version) (Bonus Track)"
    PERFORMER "Bloodline"
    INDEX 00 62:15:58
    INDEX 01 62:16:58






pb.wtf



Скачать Bloodline - King Vampire через торрент http://i109.fastpic.ru/big/2019/0421/bf/c50273e216fc5267c0661e06054843bf.png Скачать фильм Bloodline - King Vampire через торрент бесплантно в хорошем качестве Трэклист Masquerade (1:52) Creature Born From Pain (4:38) Final Eden (4:09) Forbidden (5:25) King Vampire ... 10 10 2
Торрент: Зарегистрирован [2019-04-21 15:38] · скачан: 6 раз
Статус: √ проверено
Размер: 556 MB
Как cкачать? Как скачать Bloodline - King Vampire через торрент | qTorrent

28-11-2019 20:33  

Отключить всю рекламу на сайте

    Дорогой пользователь! Огромная просьба, поблагодарите релизера, оцените раздачу и оставьте свои комментарий, если Вы скачали Bloodline - King Vampire через торрент бесплатно! Внесите свою лепту в развитие PiratBit!
    Комментировать посты могут только пользователи прошедшие не сложную регистрацию
    Показать сообщения:    

    Bloodline - King Vampire через торрент
    Скачать бесплатно Bloodline - King Vampire
    Bloodline - King Vampire скачать торрент
    Bloodline - King Vampire смотреть онлайн
    Cкачать фильм Bloodline - King Vampire бесплатно
    Bloodline - King Vampire скачать торрент в хорошем качестве
    Bloodline - King Vampire смотреть онлайн бесплатно в хорошем качестве


    Вы не можете начинать темы
    Вы не можете отвечать на сообщения
    Вы не можете редактировать свои сообщения
    Вы не можете удалять свои сообщения
    Вы не можете голосовать в опросах
    Вы не можете прикреплять файлы к сообщениям
    Вы можете скачивать файлы