Ссылка на приватное зеркало всего за 1$. Внимание количество ограничено!!!

OK

1+1

iTunes

мы

OK

1

WEB-DLRip

Джокер

Пифагор

Ведьмак / The Witcher сериал

Лицензия

ПШазам

ОК

Оно 2

iTunes

30
pack

Вам бонус

ВАЖНО

!!Акция!!

Alien_RageХит недели

RePack

Resident Evil 21

ИГРА 18+

pack

RePack

jed

!!Акция!!

Alien_Rage

RePack

fifa19

RePack

Assassins Creed: Odyssey

RePack

NEED FOR SPEED™ PAYBACK

4 сезон

9 сезон

Бесстыжие 9 сезон

Все сериалы

все сериалы на PB.wtf

RePack

FAR CRY 5
  

Учитель музыки / Music Teacher (Сартхак Дасгупта) [2019, драма, WEB-DL 720p] MVO ["Синема УС"] pb.wtf

Учитель музыки через торрент pb.wtf

Размер: 4.13 GB | Добавлен: 9 мес. назад | Торрент скачан:4 раза
Скачать  

21-04-2019 15:59 Учитель музыки Скачать торрент  

Учитель музыки / Music Teacher Год выпуска: 2019
Страна: Индия
Жанр: драма
Продолжительность: 01:42:38
Перевод: Любительский (многоголосый) | "Синема УС"
Субтитры: отсутствуют

Режиссер: Сартхак Дасгупта

rating

В ролях:

Дивья Дутта, Манав Каул, Нина Гупта, Амрита Багчи, Джаспал Шарма, Лира Датт

Описание:

Несмотря на свои амбиции сделать его большим, Бени все еще застрял в холмах, горько и больно, изо всех сил пытаясь свести концы с концами, преподавая музыку и поя в клубах. Йоцна, его отчужденный ученик, а ныне певец Болливуда, покинул холмы 8 лет назад. Город гудит от новостей о возвращении Джоцны на концерт музыки. Бени должен смириться с болью прошлого и заблуждениями настоящего, чтобы иметь дело как с присутствием Джоцны в горах, так и в его жизни.

Качество: WEB-DL 720p
Формат: MKV

Видео: h.264, 5 372 Кбит/с, 1280x536
Аудио#1: Русский, (AC3, 2 ch, 384 Кбит/с)
скриншот  скриншот  скриншот  

Общее
Уникальный идентификатор : 178568229818610663105587915931635182692 (0x8656FD76B1DC30B38FD22842314C6C64)
Полное имя : D:\Music.Teacher.2019.P.WEB-DL.72Op.mkv
Формат : Matroska
Версия формата : Version 2
Размер файла : 4,13 Гбайт
Продолжительность : 1 ч. 42 м.
Режим общего битрейта : Переменный
Общий поток : 5757 Кбит/сек
Дата кодирования : UTC 2019-04-19 23:51:50
Программа кодирования : mkvmerge v8.3.0 ('Over the Horizon') 64bit
Библиотека кодирования : libebml v1.3.1 + libmatroska v1.4.2

Видео
Идентификатор : 1
Формат : AVC
Формат/Информация : Advanced Video Codec
Профиль формата : High@L4.1
Параметр CABAC формата : Да
Параметр RefFrames формата : 4 кадра
Идентификатор кодека : V_MPEG4/ISO/AVC
Продолжительность : 1 ч. 42 м.
Вид битрейта : Переменный
Битрейт : 5372 Кбит/сек
Максимальный битрейт : 6000 Кбит/сек
Ширина : 1280 пикселей
Высота : 536 пикселей
Соотношение сторон : 2,40:1
Режим частоты кадров : Постоянный
Частота кадров : 23,976 (24000/1001) кадра/сек
Стандарт вещания : Component
Цветовое пространство : YUV
Субдискретизация насыщенности : 4:2:0
Битовая глубина : 8 бит
Тип развёртки : Прогрессивная
Бит/(Пиксели*Кадры) : 0.320
Размер потока : 3,77 Гбайт (91%)
Default : Да
Forced : Нет
Цветовой диапазон : Limited
Основные цвета : BT.709
Характеристики трансфера : BT.709
Коэффициенты матрицы : BT.709

Аудио
Идентификатор : 2
Формат : AC-3
Формат/Информация : Audio Coding 3
Расширение режима : CM (complete main)
Параметр Endianness формата : Big
Идентификатор кодека : A_AC3
Продолжительность : 1 ч. 42 м.
Вид битрейта : Постоянный
Битрейт : 384 Кбит/сек
Каналы : 2 канала
Расположение каналов : Front: L R
Частота : 48,0 КГц
Частота кадров : 31,250 кадров/сек (1536 spf)
Метод сжатия : С потерями
Размер потока : 282 Мбайт (7%)
Default : Да
Forced : Нет

pb.wtf



Скачать Учитель музыки через торрент https://a.radikal.ru/a35/1904/56/4da96cbe133c.jpg Скачать фильм Учитель музыки через торрент бесплантно в хорошем качестве Описание: Несмотря на свои амбиции сделать его большим, Бени все еще застрял в холмах, горько и больно, изо всех сил пытаясь свести концы с ... 7 10 3
Торрент: Зарегистрирован [2019-04-21 15:59] · скачан: 4 раз
Статус: T временная
Размер: 4.13 GB
Как cкачать? Как скачать Учитель музыки через торрент | qTorrent

% Раздел Тема Автор DL S | L
T Фильмы (мультфильмы) cо спонсором показа (Новинки AVI/MKV) [ 1.37 GB ] Учитель музыки / Music Teacher [2019 WEB-DLRip] MVO ["Синема УС"] bober100 Скачать
1 | 0

28-11-2019 20:33  

Отключить всю рекламу на сайте

    Дорогой пользователь! Огромная просьба, поблагодарите релизера, оцените раздачу и оставьте свои комментарий, если Вы скачали Учитель музыки через торрент бесплатно! Внесите свою лепту в развитие PiratBit!
    Комментировать посты могут только пользователи прошедшие не сложную регистрацию
    Показать сообщения:    

    Учитель музыки через торрент
    Скачать бесплатно Учитель музыки
    Учитель музыки скачать торрент
    Учитель музыки смотреть онлайн
    Cкачать фильм Учитель музыки бесплатно
    Учитель музыки скачать торрент в хорошем качестве
    Учитель музыки смотреть онлайн бесплатно в хорошем качестве


    Вы не можете начинать темы
    Вы не можете отвечать на сообщения
    Вы не можете редактировать свои сообщения
    Вы не можете удалять свои сообщения
    Вы не можете голосовать в опросах
    Вы не можете прикреплять файлы к сообщениям
    Вы можете скачивать файлы