Ссылка на приватное зеркало всего за 1$. Внимание количество ограничено!!!

OK

1+1

iTunes

мы

OK

1

WEB-DLRip

Джокер

Пифагор

Ведьмак / The Witcher сериал

iTunes

ПШазам

ОК

Оно 2

iTunes

30
pack

Вам бонус

ВАЖНО

!!Акция!!

Alien_RageХит недели

RePack

Resident Evil 21

ИГРА 18+

pack

RePack

jed

RePack

fifa19

RePack

Assassins Creed: Odyssey

RePack

NEED FOR SPEED™ PAYBACK

4 сезон

9 сезон

Бесстыжие 9 сезон

Все сериалы

все сериалы на PB.wtf

RePack

FAR CRY 5
  

Безжалостный / Lo spietato (Ренато Де Мария) [2019, криминал, WEB-DL 720p] MVO ["Синема УС"] pb.wtf

Безжалостный через торрент pb.wtf

Раздают: 1 [ 0 KB/s ]
Размер: 4.54 GB | Добавлен: 9 мес. назад | Торрент скачан:126 раз
Скачать  

21-04-2019 16:19 Безжалостный Скачать торрент  

Безжалостный / Lo spietato
Год выпуска: 2019
Страна: Италия
Жанр: криминал
Продолжительность: 01:52:07
Перевод: Любительский (многоголосый) | "Синема УС"
Субтитры: отсутствуют

Режиссер: Ренато Де Мария

rating

В ролях:

Риккардо Скамарчо, Сара Серайокко, Валентайн Пайен, Алессио Пратико, Мари-Анж Каста, Алессандро Тедески, Фулвио Милани, Фортунато Вердучи, Маттео Леони, Фабио Пелликори

Описание:

Санто Руссо вырос в провинциальной глубинке. Он хорошо знает, что такое бедность. Теперь он разгуливает по улицам Милана в сшитом на заказ костюме и с пистолетом в кармане, и он совершенно не намерен возвращаться к прежней жизни.

Качество: WEB-DL 720p
Формат: MKV

Видео: h.264, 5 408 Кбит/с, 1280x536
Аудио: Русский, (AC3, 2 ch, 384 Кбит/с)
скриншот  скриншот  скриншот  

Общее
Уникальный идентификатор : 174607363636956257079975850787289720526 (0x835C27AEFD8EBA148F48F3A86CAC66CE)
Полное имя : D:\Lo.Spietato.2019.P.WEB-DL.72Op.mkv
Формат : Matroska
Версия формата : Version 2
Размер файла : 4,54 Гбайт
Продолжительность : 1 ч. 52 м.
Режим общего битрейта : Переменный
Общий поток : 5793 Кбит/сек
Дата кодирования : UTC 2019-04-19 23:40:39
Программа кодирования : mkvmerge v8.3.0 ('Over the Horizon') 64bit
Библиотека кодирования : libebml v1.3.1 + libmatroska v1.4.2

Видео
Идентификатор : 1
Формат : AVC
Формат/Информация : Advanced Video Codec
Профиль формата : High@L4.1
Параметр CABAC формата : Да
Параметр RefFrames формата : 4 кадра
Идентификатор кодека : V_MPEG4/ISO/AVC
Продолжительность : 1 ч. 52 м.
Вид битрейта : Переменный
Битрейт : 5408 Кбит/сек
Максимальный битрейт : 6000 Кбит/сек
Ширина : 1280 пикселей
Высота : 536 пикселей
Соотношение сторон : 2,40:1
Режим частоты кадров : Постоянный
Частота кадров : 23,976 (24000/1001) кадра/сек
Стандарт вещания : Component
Цветовое пространство : YUV
Субдискретизация насыщенности : 4:2:0
Битовая глубина : 8 бит
Тип развёртки : Прогрессивная
Бит/(Пиксели*Кадры) : 0.322
Размер потока : 4,15 Гбайт (91%)
Default : Да
Forced : Нет
Цветовой диапазон : Limited
Основные цвета : BT.709
Характеристики трансфера : BT.709
Коэффициенты матрицы : BT.709

Аудио
Идентификатор : 2
Формат : AC-3
Формат/Информация : Audio Coding 3
Расширение режима : CM (complete main)
Параметр Endianness формата : Big
Идентификатор кодека : A_AC3
Продолжительность : 1 ч. 52 м.
Вид битрейта : Постоянный
Битрейт : 384 Кбит/сек
Каналы : 2 канала
Расположение каналов : Front: L R
Частота : 48,0 КГц
Частота кадров : 31,250 кадров/сек (1536 spf)
Метод сжатия : С потерями
Размер потока : 308 Мбайт (7%)
Default : Да
Forced : Нет

pb.wtf



Скачать Безжалостный через торрент https://a.radikal.ru/a42/1904/9f/c11f7d31cfac.jpg Скачать фильм Безжалостный через торрент бесплантно в хорошем качестве Описание: Санто Руссо вырос в провинциальной глубинке. Он хорошо знает, что такое бедность. Теперь он разгуливает по улицам Милана в сшитом ... 10 10 4
Торрент: Зарегистрирован [2019-04-21 16:19] · скачан: 126 раз
Статус: T временная
Размер: 4.54 GB
Как cкачать? Как скачать Безжалостный через торрент | qTorrent

% Раздел Тема Автор DL S | L
T Фильмы 2019-2020 [DVDrip, WEB-DLRip, HDrip] (DUB, MVO) [ 2.06 GB ] Безжалостный / Lo spietato [2019 WEB-DLRip] [MVO] killermax2013 Скачать
2 | 0
Фильмы (WEB-DL 720p, 1080p) [ 3.62 GB ] Безжалостный / Lo spietato [2019 WEB-DL 1080p] [MVO] killermax2013 Скачать
4 | 0
T Фильмы (мультфильмы) cо спонсором показа (Новинки AVI/MKV) [ 1.46 GB ] Безжалостный / Lo spietato [2019 WEB-DLRip] MVO ["Синема УС"] bober100 Скачать
1 | 0

28-11-2019 20:33  

Отключить всю рекламу на сайте

    Дорогой пользователь! Огромная просьба, поблагодарите релизера, оцените раздачу и оставьте свои комментарий, если Вы скачали Безжалостный через торрент бесплатно! Внесите свою лепту в развитие PiratBit!
    Комментировать посты могут только пользователи прошедшие не сложную регистрацию
    Показать сообщения:    

    Безжалостный через торрент
    Скачать бесплатно Безжалостный
    Безжалостный скачать торрент
    Безжалостный смотреть онлайн
    Cкачать фильм Безжалостный бесплатно
    Безжалостный скачать торрент в хорошем качестве
    Безжалостный смотреть онлайн бесплатно в хорошем качестве


    Вы не можете начинать темы
    Вы не можете отвечать на сообщения
    Вы не можете редактировать свои сообщения
    Вы не можете удалять свои сообщения
    Вы не можете голосовать в опросах
    Вы не можете прикреплять файлы к сообщениям
    Вы можете скачивать файлы