Ссылка на приватное зеркало всего за 1$. Внимание количество ограничено!!!

OK

1+1

iTunes

мы

OK

1

WEB-DLRip

Джокер

Пифагор

Ведьмак / The Witcher сериал

iTunes

ПШазам

ОК

Оно 2

iTunes

30
pack

Вам бонус

ВАЖНО

!!Акция!!

Alien_RageХит недели

RePack

Resident Evil 21

ИГРА 18+

pack

RePack

jed

RePack

fifa19

RePack

Assassins Creed: Odyssey

RePack

NEED FOR SPEED™ PAYBACK

4 сезон

9 сезон

Бесстыжие 9 сезон

Все сериалы

все сериалы на PB.wtf

RePack

FAR CRY 5
  

Клетки / Jaulas (Николас Пачеко) [2018, Триллер, BDRip 720p] MVO ["Синема УС"] pb.wtf

Клетки через торрент pb.wtf

Размер: 3.79 GB | Добавлен: 9 мес. назад | Торрент скачан:22 раза
Скачать  

21-04-2019 17:02 Клетки Скачать торрент  

Клетки / JaulasГод выпуска: 2018
Страна: Испания
Жанр: Триллер
Продолжительность: 01:35:43
Перевод: Любительский (многоголосый) | "Синема УС"
Субтитры: отсутствуют

Режиссер: Николас Пачеко

rating

В ролях: Мария Кабрера, Маноло Каро, Мануэль Каньяда, Эстефания Де Лос Сантос, Антонио Дечент, Антонио Эстрада, Мила Фернандес, Марта Гавилан, Стефан Михай, Белен Понсе де Леон

Описание: Уставшие от гнета и притеснений Конча и её дочь, Аделя, бегут из города. Когда о их побеге узнают, им ничего не остаётся, кроме как бороться за свою свободу.

Качество: BDRip 720p
Формат: MKV

Видео: h.264,5 279 Кбит/с, 1280x640
Аудио: Русский, (AC3, 2 ch, 384 Кбит/с)
скриншот  скриншот  скриншот  

Общее
Уникальный идентификатор : 182174089357784254383290605994546506664 (0x890D74109E15FAC4B6404AFFEBE72BA8)
Полное имя : D:\Jaulas.2O19.P.BDRip.72Op.mkv
Формат : Matroska
Версия формата : Version 2
Размер файла : 3,79 Гбайт
Продолжительность : 1 ч. 35 м.
Режим общего битрейта : Переменный
Общий поток : 5665 Кбит/сек
Дата кодирования : UTC 2019-04-20 05:11:07
Программа кодирования : mkvmerge v8.3.0 ('Over the Horizon') 64bit
Библиотека кодирования : libebml v1.3.1 + libmatroska v1.4.2

Видео
Идентификатор : 1
Формат : AVC
Формат/Информация : Advanced Video Codec
Профиль формата : High@L4.1
Параметр CABAC формата : Да
Параметр RefFrames формата : 4 кадра
Идентификатор кодека : V_MPEG4/ISO/AVC
Продолжительность : 1 ч. 35 м.
Вид битрейта : Переменный
Битрейт : 5279 Кбит/сек
Максимальный битрейт : 6000 Кбит/сек
Ширина : 1280 пикселей
Высота : 640 пикселей
Соотношение сторон : 2,000
Режим частоты кадров : Постоянный
Частота кадров : 23,976 (24000/1001) кадра/сек
Стандарт вещания : Component
Цветовое пространство : YUV
Субдискретизация насыщенности : 4:2:0
Битовая глубина : 8 бит
Тип развёртки : Прогрессивная
Бит/(Пиксели*Кадры) : 0.263
Размер потока : 3,46 Гбайт (91%)
Default : Да
Forced : Нет
Цветовой диапазон : Limited
Основные цвета : BT.709
Характеристики трансфера : BT.709
Коэффициенты матрицы : BT.709

Аудио
Идентификатор : 2
Формат : AC-3
Формат/Информация : Audio Coding 3
Расширение режима : CM (complete main)
Параметр Endianness формата : Big
Идентификатор кодека : A_AC3
Продолжительность : 1 ч. 35 м.
Вид битрейта : Постоянный
Битрейт : 384 Кбит/сек
Каналы : 2 канала
Расположение каналов : Front: L R
Частота : 48,0 КГц
Частота кадров : 31,250 кадров/сек (1536 spf)
Метод сжатия : С потерями
Размер потока : 263 Мбайт (7%)
Default : Да
Forced : Нет

pb.wtf



Скачать Клетки через торрент https://d.radikal.ru/d13/1904/ae/a9838de3fa89.jpg Скачать фильм Клетки через торрент бесплантно в хорошем качестве Описание: Уставшие от гнета и притеснений Конча и её дочь, Аделя, бегут из города. Когда о их побеге узнают, им ничего не остаётся, кроме ... 10 10 2
Торрент: Зарегистрирован [2019-04-21 17:02] · скачан: 22 раз
Статус: # сомнительно
Размер: 3.79 GB
Как cкачать? Как скачать Клетки через торрент | qTorrent

% Раздел Тема Автор DL S | L
T Фильмы (мультфильмы) cо спонсором показа (Новинки AVI/MKV) [ 1.37 GB ] Клетки / Jaulas [2018 HDRip] MVO ["Синема УС"] bober100 Скачать
1 | 0

28-11-2019 20:33  

Отключить всю рекламу на сайте

23-04-2019 16:02 Клетки Скачать торрент  

конча)))))))))))))))pb.wtf



    Дорогой пользователь! Огромная просьба, поблагодарите релизера, оцените раздачу и оставьте свои комментарий, если Вы скачали Клетки через торрент бесплатно! Внесите свою лепту в развитие PiratBit!
    Комментировать посты могут только пользователи прошедшие не сложную регистрацию
    Показать сообщения:    

    Клетки через торрент
    Скачать бесплатно Клетки
    Клетки скачать торрент
    Клетки смотреть онлайн
    Cкачать фильм Клетки бесплатно
    Клетки скачать торрент в хорошем качестве
    Клетки смотреть онлайн бесплатно в хорошем качестве


    Вы не можете начинать темы
    Вы не можете отвечать на сообщения
    Вы не можете редактировать свои сообщения
    Вы не можете удалять свои сообщения
    Вы не можете голосовать в опросах
    Вы не можете прикреплять файлы к сообщениям
    Вы можете скачивать файлы