Ссылка на приватное зеркало нашего сайта всего за 1$. Внимание количество ограничено!!!

2 сезон

iTunes

1 сезон

1

iTunes

iTunes

iTunes

1 сезон

RePack

30

ИГРА 18+

pack

ВАЖНО

!!Акция!!

Alien_RageХит недели

RePack

MK11
pack

Забери бонус

RePack

jed

!!Акция!!

Alien_Rage

RePack

fifa19

RePack

Assassins Creed: Odyssey

RePack

NEED FOR SPEED™ PAYBACK

4 сезон

9 сезон

Бесстыжие 9 сезон

Все сериалы

все сериалы на PB.wtf

RePack

FAR CRY 5
  

На рубеже. Ответный удар / Серии: 1-4 (Алексей Молочник) [2014, Боевик, приключения, SATRip] pb.wtf

На рубеже. Ответный удар через торрент pb.wtf

Размер: 2.13 GB | Добавлен: 1 год 6 мес. назад | Торрент скачан:124 раза
Скачать  

21-04-2019 18:31 На рубеже. Ответный удар Скачать торрент  

На рубеже. Ответный удар Год выпуска: 2014
Страна: Россия
Жанр: Боевик, приключения
Продолжительность: ~ 00:40:00 серия
Субтитры: отсутствуют

Режиссер: Алексей Молочник

rating

В ролях:

Андрей Федорцов, Максим Павлов, Родион Галюченко, Николай Чиндяйкин, Роман Курцын, Керим Магомедов, Антон Юрьев, Игорь Ботвин, Игорь Михайлов

Описание:

Молодой капитан-пограничник Тимофей Смолин во время службы на Северном Кавказе был ранен, а после лечения получил назначение в «спокойный» регион — на северо-западную государственную границу. Несмотря на теплый прием со стороны нового начальника — майора Зимина, Тимофей не спешит радоваться переводу на тихую заставу. Будучи офицером по призванию, Смолин уверен, что его опыт гораздо нужнее на старом месте. Привыкший к реальным угрозам и постоянному риску, он относится к работе очень серьезно, даже ревностно, что сразу привлекает внимание его коллег. Однако довольно быстро выясняется, что и здесь есть место настоящему подвигу...

Качество: SATRip
Формат: AVI

Видео: XviD, ~ 1800 Кбит/с, 720x416
Аудио: MP3, 2 ch, 128 Кбит/с
скриншот   скриншот   скриншот   скриншот   скриншот  

Общее
Полное имя : D:\Na.rubezhe.2014.SATRip\Na.rubezhe.01.2014.SATRip.avi
Формат : AVI
Формат/Информация : Audio Video Interleave
Размер файла : 577 Мбайт
Продолжительность : 41 м. 38 с.
Общий поток : 1938 Кбит/сек
Программа кодирования : VirtualDubMod 1.5.10.3 | www.virtualdub-fr.org || (build 2550/release)
Библиотека кодирования : VirtualDub build 32507/release

Видео
Идентификатор : 0
Формат : MPEG-4 Visual
Профиль формата : Advanced Simple@L5
Параметр BVOP формата : 2
Параметр QPel формата : Нет
Параметр GMC формата : Без точки перехода
Параметр матрицы формата : Default (MPEG)
Идентификатор кодека : XVID
Идентификатор кодека/Подсказка : XviD
Продолжительность : 41 м. 38 с.
Битрейт : 1800 Кбит/сек
Ширина : 720 пикселей
Высота : 416 пикселей
Соотношение сторон : 1,731
Частота кадров : 25,000 кадров/сек
Цветовое пространство : YUV
Субдискретизация насыщенности : 4:2:0
Битовая глубина : 8 бит
Тип развёртки : Прогрессивная
Метод сжатия : С потерями
Бит/(Пиксели*Кадры) : 0.240
Размер потока : 536 Мбайт (93%)
Библиотека кодирования : XviD 1.2.1 (UTC 2008-12-04)

Аудио
Идентификатор : 1
Формат : MPEG Audio
Версия формата : Version 1
Профиль формата : Layer 3
Режим : Joint stereo
Идентификатор кодека : 55
Идентификатор кодека/Подсказка : MP3
Продолжительность : 41 м. 38 с.
Вид битрейта : Постоянный
Битрейт : 128 Кбит/сек
Каналы : 2 канала
Частота : 48,0 КГц
Метод сжатия : С потерями
Размер потока : 38,1 Мбайт (7%)
Выравнивание : Соединение по промежуткам
Продолжительность промежутка : 40 мс. (1,00 видеокадр)
Время предзагрузки промежутка : 504 мс.
Библиотека кодирования : LAME3.99r
Настройки программы : -m j -V 4 -q 2 -lowpass 17 -b 128

pb.wtf



Скачать На рубеже. Ответный удар через торрент http://s43.radikal.ru/i099/1405/56/5fdbedcddf46.jpg Скачать фильм На рубеже. Ответный удар через торрент бесплантно в хорошем качестве Описание: Молодой капитан-пограничник Тимофей Смолин во время службы на Северном Кавказе был ранен, а после лечения получил назначение в ... 10 10 3
Торрент: Зарегистрирован [2019-04-21 18:31] · скачан: 124 раз
Статус: √ проверено
Размер: 2.13 GB
Как cкачать? Как скачать На рубеже. Ответный удар через торрент | qTorrent

28-11-2019 20:33  

Отключить всю рекламу на сайте

    Дорогой пользователь! Огромная просьба, поблагодарите релизера, оцените раздачу и оставьте свои комментарий, если Вы скачали На рубеже. Ответный удар через торрент бесплатно! Внесите свою лепту в развитие PiratBit!
    Комментировать посты могут только пользователи прошедшие не сложную регистрацию
    Показать сообщения:    

    На рубеже. Ответный удар через торрент
    Скачать бесплатно На рубеже. Ответный удар
    На рубеже. Ответный удар скачать торрент
    На рубеже. Ответный удар смотреть онлайн
    Cкачать фильм На рубеже. Ответный удар бесплатно
    На рубеже. Ответный удар скачать торрент в хорошем качестве
    На рубеже. Ответный удар смотреть онлайн бесплатно в хорошем качестве


    Вы не можете начинать темы
    Вы не можете отвечать на сообщения
    Вы не можете редактировать свои сообщения
    Вы не можете удалять свои сообщения
    Вы не можете голосовать в опросах
    Вы не можете прикреплять файлы к сообщениям
    Вы можете скачивать файлы