MEGA SALE -50% FORZA HORIZON 4 ULTIMATE+ВСЕ DLC+ОНЛАЙН всего за 599р. 299 руб. (супер цена). Внимание количество ограничено!!!

iTunes

1+1

iTunes

мы

iTunes

1

iTunes

Чернобыль

1 сезон

Ральф против интернета

Лицензия

ПШазам

Лицензия

Игра престолов

Лицензия

30
pack

ВАЖНО

!!Акция!!

Alien_RageХит недели

RePack

Resident Evil 21

ИГРА 18+

pack

RePack

Metro:Exodus

!!Акция!!

Alien_Rage

RePack

fifa19

RePack

Assassins Creed: Odyssey

RePack

NEED FOR SPEED™ PAYBACK

3 сезон

9 сезон

Бесстыжие 9 сезон

Все сериалы

все сериалы на PB.wtf

RePack

FAR CRY 5
Ребята, катастрофически не хватает 7730р. для оплаты серверов за ИЮЛЬ (всвязи с блокировками трафик упал в 3 раза), 1-2р., выручайте.
  

Игры разумов / The Professor and the Madman (Фарад Сафиниа) [2019, Триллер, драма, детектив, биография, WEB-DLRip-AVC] MVO [HDRezka Studio] - ExKinoRay pb.wtf

Игры разумов через торрент pb.wtf

Раздают: 42 [ 353 KB/s ] Качают: 1 [ 0 KB/s ]
Размер: 2.02 GB | Добавлен: 4 мес. 1 д. назад | Торрент скачан:561 раз
Скачать  

22-04-2019 00:45 Игры разумов Скачать торрент  

Название: Игры разумов
Оригинальное название: The Professor and the Madman
Год выпуска: 2019
Жанр: Триллер, драма, детектив, биография
Режиссер: Фарад Сафиниа
В ролях: Мэл Гибсон, Шон Пенн, Натали Дормер, Джереми Ирвин, Дженнифер Или, Стив Кугэн, Стивен Диллэйн, Эдди Марсан, Йоан Гриффит, Лоуренс Фокс

Описание: Англия середины XIX века. Оксфордский профессор Джеймс Мюррей работает над первым в истории словарем английского языка, а его главным соратником становится заключенный психиатрической клиники для особо опасных преступников - доктор Уильям Майнор. Гений Майнор или сумасшедший, хитроумный преступник, ведущий дерзкую игру, чтобы вырваться на свободу, или одержимый ученый? И кто тогда Мюррей: верный друг, жертва манипуляции или организатор сговора?



Выпущено: Ирландия, Fastnet Films, 22h22, Caviar Antwerp NV
Продолжительность: 02:04:27
Перевод: Профессиональный (многоголосый, закадровый) | HDRezka Studio

БЕЗ КАКОЙ-ЛИБО РЕКЛАМЫ!

Формат: MKV
Качество: WEB-DLRip-AVC
Видео: MPEG-4 AVC, 1024x426 (2.40:1), 24.000 fps, 1750 Kbps, 0.167 bit/pixel
Аудио 1: 48 kHz, AC3, 2.0, 192 Kbps | MVO | RUS |
Аудио 2: 48 kHz, AC3, 5.1, 384 Kbps | Оригинал | ENG |
General
Unique ID : 207664391846133895909677396885754141319 (0x9C3AB5022481006ABE1F3CF2AFC8DA87)
Complete name : F:\The.Professor.and.the.Madman.2019.MVO.WEB-DL.Rip.AVC.ExKinoRay.mkv
Format : Matroska
Format version : Version 2
File size : 2.02 GiB
Duration : 2 h 4 min
Overall bit rate : 2 326 kb/s
Movie name : The Professor and the Madman 2019 from ExKinoRay
Encoded date : UTC 2019-04-21 23:16:55
Writing application : mkvmerge v5.6.0 ('Kenya Kane') built on May 27 2012 16:44:04
Writing library : libebml v1.2.3 + libmatroska v1.3.0

Video
ID : 1
Format : AVC
Format/Info : Advanced Video Codec
Format profile : High@L4.1
Format settings, CABAC : Yes
Format settings, ReFrames : 11 frames
Codec ID : V_MPEG4/ISO/AVC
Duration : 2 h 4 min
Bit rate : 1 750 kb/s
Width : 1 024 pixels
Height : 426 pixels
Display aspect ratio : 2.40:1
Frame rate mode : Constant
Frame rate : 24.000 FPS
Color space : YUV
Chroma subsampling : 4:2:0
Bit depth : 8 bits
Scan type : Progressive
Bits/(Pixel*Frame) : 0.167
Stream size : 1.48 GiB (73%)
Title : Enigma
Writing library : x264 core 152 r2851 ba24899
Encoding settings : cabac=1 / ref=11 / deblock=1:-2:-2 / analyse=0x3:0x113 / me=umh / subme=10 / psy=1 / psy_rd=1.04:0.08 / mixed_ref=1 / me_range=32 / chroma_me=1 / trellis=2 / 8x8dct=1 / cqm=0 / deadzone=21,11 / fast_pskip=0 / chroma_qp_offset=-3 / threads=12 / lookahead_threads=3 / sliced_threads=0 / nr=0 / decimate=0 / interlaced=0 / bluray_compat=0 / constrained_intra=0 / bframes=12 / b_pyramid=2 / b_adapt=2 / b_bias=0 / direct=3 / weightb=1 / open_gop=0 / weightp=2 / keyint=240 / keyint_min=24 / scenecut=40 / intra_refresh=0 / rc=2pass / mbtree=0 / bitrate=1750 / ratetol=1.0 / qcomp=0.60 / qpmin=0 / qpmax=51 / qpstep=4 / cplxblur=20.0 / qblur=0.5 / ip_ratio=1.40 / pb_ratio=1.30 / aq=3:0.90
Language : English
Default : Yes
Forced : No
Color range : Limited
Color primaries : BT.709
Transfer characteristics : BT.709
Matrix coefficients : BT.709

Audio #1
ID : 2
Format : AC-3
Format/Info : Audio Coding 3
Mode extension : CM (complete main)
Format settings, Endianness : Big
Codec ID : A_AC3
Duration : 2 h 4 min
Bit rate mode : Constant
Bit rate : 192 kb/s
Channel(s) : 2 channels
Channel positions : Front: L R
Sampling rate : 48.0 kHz
Frame rate : 31.250 FPS (1536 spf)
Compression mode : Lossy
Stream size : 171 MiB (8%)
Title : MVO (HDRezka Studio)
Language : Russian
Default : Yes
Forced : No

Audio #2
ID : 3
Format : AC-3
Format/Info : Audio Coding 3
Mode extension : CM (complete main)
Format settings, Endianness : Big
Codec ID : A_AC3
Duration : 2 h 4 min
Bit rate mode : Constant
Bit rate : 384 kb/s
Channel(s) : 6 channels
Channel positions : Front: L C R, Side: L R, LFE
Sampling rate : 48.0 kHz
Frame rate : 31.250 FPS (1536 spf)
Compression mode : Lossy
Stream size : 342 MiB (17%)
Language : English
Default : No
Forced : No

Menu
00:00:00.000 : en:1
00:10:52.000 : en:2
00:18:58.000 : en:3
00:27:16.000 : en:4
00:36:13.000 : en:5
00:46:23.000 : en:6
00:57:00.000 : en:7
01:06:02.000 : en:8
01:16:08.000 : en:9
01:26:02.000 : en:10
01:34:54.000 : en:11
01:44:13.000 : en:12
01:53:36.000 : en:13
01:59:18.000 : en:14
Релиз от:

Автор релиза: pb.wtf



Скачать Игры разумов через торрент https://a.radikal.ru/a09/1904/e8/2dde3fae4c28.jpg Скачать фильм Игры разумов через торрент бесплантно в хорошем качестве Описание: Англия середины XIX века. Оксфордский профессор Джеймс Мюррей работает над первым в истории словарем английского языка, а его ... 10 10 10
Info! Золотая раздача, скачанное не засчитывается.
Торрент: Зарегистрирован [2019-04-22 00:45] · скачан: 561 раз
Статус: T временная
Размер: 2.02 GB
Как cкачать? Как скачать Игры разумов через торрент | qTorrent

% Раздел Тема Автор DL S | L
Фильмы 2019 [DVDrip, WEB-DLRip, HDrip] (DUB, MVO) [ 2.35 GB ] Игры разумов / The Professor and the Madman [2019 биография BDRip-AVC] MVO [HDRezka Studio] - ExKinoRay Enigma2010 Скачать
49 | 2
Фильмы (WEB-DL 720p, 1080p) [ 4.64 GB ] Игры разумов / The Professor and the Madman [2019 биография WEB-DL 1080p] Dub - ExKinoRay Enigma2010 Скачать
145 | 18
Фильмы 2019 [DVDrip, WEB-DLRip, HDrip] (DUB, MVO) [ 2.19 GB ] Игры разумов / The Professor and the Madman [2019 биография WEB-DLRip-AVC] Dub - ExKinoRay Enigma2010 Скачать
30 | 0
T Фильмы 2019 [DVDrip, WEB-DLRip, HDrip] (DUB, MVO) [ 1.45 GB ] Игры разумов / The Professor and the Madman [2019 биография WEB-DLRip] MVO [HDRezka Studio] - ExKinoRay Enigma2010 Скачать
11 | 0
T Фильмы (WEB-DL 720p, 1080p) [ 4.48 GB ] Игры разумов / The Professor and the Madman [2019 биография WEB-DL 1080p] MVO [HDRezka Studio] - ExKinoRay Enigma2010 Скачать
5 | 0


>> Регистрируемся здесь <<






Отзывы и комментарии о схеме читаем и пишем здесь: ---> Отзывы и комментарии о схеме

Новые благодарочки в телеграм довольных пользователей:
скриншот   скриншот   скриншот   скриншот   скриншот

30-04-2019 02:11 Игры разумов Скачать торрент  

Ели-ели до смотрел, с 3 раза и то из-за того, что электричество отрубилось (штормовой ветер был, эл.линии оборвались), а на ноуте зарядка была. Потеря времени, фильм минус 5 из 5.pb.wtf



    Дорогой пользователь! Огромная просьба, поблагодарите релизера, оцените раздачу и оставьте свои комментарий, если Вы скачали Игры разумов через торрент бесплатно! Внесите свою лепту в развитие PiratBit!
    Комментировать посты могут только пользователи прошедшие не сложную регистрацию
    Показать сообщения:    

    Игры разумов через торрент
    Скачать бесплатно Игры разумов
    Игры разумов скачать торрент
    Игры разумов смотреть онлайн
    Cкачать фильм Игры разумов бесплатно
    Игры разумов скачать торрент в хорошем качестве
    Игры разумов смотреть онлайн бесплатно в хорошем качестве


    Вы не можете начинать темы
    Вы не можете отвечать на сообщения
    Вы не можете редактировать свои сообщения
    Вы не можете удалять свои сообщения
    Вы не можете голосовать в опросах
    Вы не можете прикреплять файлы к сообщениям
    Вы можете скачивать файлы