2 сезон

iTunes

MVO

1

2 сезон

iTunes

iTunes

1 сезон

RePack

30

Новинка

ВАЖНО

ИГРА 18+

pack

RePack

MK11
pack

Легкие деньги

RePack

jed

RePack

fifa19

RePack

RDR2

RePack

NEED FOR SPEED™ PAYBACK

4 сезон

9 сезон

Бесстыжие 9 сезон

Все сериалы

все сериалы на PB.wtf

RePack

FAR CRY 5

Anonymous, добрый вечер, мы не успеваем собрать деньги на оплату серверов за декабрь и январь, помогите нам пожалуйста в это трудное время. В качестве благодарности мы отключим Вам всю рекламу на сайте (укажите свой ник в строку Ваше имя)!

×
  
Magnet ссылка

Парни со стволами / War Dogs (Тодд Филлипс) [2016, драма, комедия, криминал, военный, UHD BDRemux 2160p] DUB [Лицензия] + 2xAVO pb.wtf

Парни со стволами через торрент pb.wtf

Размер: 55.31 GB | Добавлен: 1 год 9 мес. назад | Торрент скачан:42 раза
Скачать  

22-04-2019 03:08 Парни со стволами Скачать торрент  

Парни со стволами / War Dogs«An American dream»

Год выпуска: 2016
Страна: США, Камбоджа
Жанр: драма, комедия, криминал, военный
Продолжительность: 01:54:13
Перевод: Профессиональный (дублированный), Авторский (одноголосый закадровый)
Субтитры: русские (forced, full), английские (SDH)
Режиссер: Тодд Филлипс
В ролях:

Майлз Теллер (David Packouz), Джона Хилл (Efraim Diveroli), Ана де Армас (Iz), Кевин Поллак (Ralph Slutsky), Брэдли Купер (Henry Girard), Джейби Бланк (Bashkim), Патрик Ст. Эсприт (Captain Philip Santos), Шон Тоуб (Marlboro), Эдди Джемисон (Hilldale Home Manager), Дэниэл Берсон (Rabbi), Стив Лэнц (Security Guard), Грегг Уэйнер (Massage Client)
Описание:
История о приятелях из Майами, умудрившихся выбить в Пентагоне контракт на 300 миллионов долларов на поставку оружия.
Рейтинг:

MPAA: R - Лицам до 17 лет обязательно присутствие взрослого
Качество: UHD BDRemux 2160p [War Dogs 2016 2160p UHD Blu-ray HEVC DTS-HD MA 5.1-TERMiNAL]
Контейнер: MKV
Видео: MPEG-H HEVC Video / 57992 kbps / 3840x2160 / 23,976 fps / 16:9 / Main 10 @ Level 5.1 @ High / 4:2:0 / 10 bits / HDR10 / Limited Range / BT.2020
Аудио 1: Russian AC3 / 5.1 / 48 kHz / 640 kbps / 16-bit |Dub, Blu-Ray|
Аудио 2: Russian DTS-HD Master Audio / 5.1 / 48 kHz / 3610 kbps / 24-bit (DTS Core: 5.1 / 48 kHz / 1509 kbps / 24-bit) |Ю. Немахов|
Аудио 3: Russian DTS-HD Master Audio / 5.1 / 48 kHz / 3556 kbps / 24-bit (DTS Core: 5.1 / 48 kHz / 1509 kbps / 24-bit) |Д. Есарев|
Аудио 4: English DTS-HD Master Audio / 5.1 / 48 kHz / 3525 kbps / 24-bit (DTS Core: 5.1 / 48 kHz / 1509 kbps / 24-bit) |original|
Навигация по главам: есть

Общее
Уникальный идентификатор : 253958604049267058416519840882780980901 (0xBF0EA5E476A88A332CD999B61BA2C6A5)
Полное имя : H:\UHD\Парни со стволами.2016.UHD.Blu-Ray.Remux.2160p.mkv
Формат : Matroska
Версия формата : Version 4
Размер файла : 55,3 Гбайт
Продолжительность : 1 ч. 54 м.
Режим общего битрейта : Переменный
Общий поток : 69,3 Мбит/сек
Дата кодирования : UTC 2019-04-21 14:23:11
Программа кодирования : mkvmerge v33.1.0 ('Primrose') 64-bit
Библиотека кодирования : libebml v1.3.7 + libmatroska v1.5.0
Attachments : poster.jpg

Видео
Идентификатор : 1
Формат : HEVC
Формат/Информация : High Efficiency Video Coding
Коммерческое название : HDR10
Профиль формата : Main 10@L5.1@High
Идентификатор кодека : V_MPEGH/ISO/HEVC
Продолжительность : 1 ч. 54 м.
Битрейт : 58,0 Мбит/сек
Ширина : 3840 пикселей
Высота : 2160 пикселей
Соотношение сторон : 16:9
Режим частоты кадров : Постоянный
Частота кадров : 23,976 (24000/1001) кадра/сек
Цветовое пространство : YUV
Субдискретизация насыщенности : 4:2:0 (Type 2)
Битовая глубина : 10 бит
Бит/(Пиксели*Кадры) : 0.292
Размер потока : 46,3 Гбайт (84%)
Библиотека кодирования : ATEME Titan File 3.7.6 (4.7.6.101)
Default : Да
Forced : Нет
Цветовой диапазон : Limited
Основные цвета : BT.2020
Характеристики трансфера : PQ
Коэффициенты матрицы : BT.2020 non-constant
MasteringDisplay_ColorPrimaries : Display P3
MasteringDisplay_Luminance : min: 0.0050 cd/m2, max: 4000 cd/m2
MaxCLL : 1225 cd/m2
MaxFALL : 361 cd/m2

Аудио #1
Идентификатор : 2
Формат : AC-3
Формат/Информация : Audio Coding 3
Коммерческое название : Dolby Digital
Идентификатор кодека : A_AC3
Продолжительность : 1 ч. 54 м.
Вид битрейта : Постоянный
Битрейт : 640 Кбит/сек
Каналы : 6 каналов
Channel layout : L R C LFE Ls Rs
Частота : 48,0 КГц
Частота кадров : 31,250 кадров/сек (1536 SPF)
Битовая глубина : 16 бит
Метод сжатия : С потерями
Размер потока : 523 Мбайт (1%)
Заголовок : Dub, Blu-Ray
Язык : Russian
ServiceKind/String : Complete Main
Default : Да
Forced : Нет

Аудио #2
Идентификатор : 3
Формат : DTS XLL
Формат/Информация : Digital Theater Systems
Коммерческое название : DTS-HD Master Audio
Идентификатор кодека : A_DTS
Продолжительность : 1 ч. 54 м.
Вид битрейта : Переменный
Битрейт : 3610 Кбит/сек
Каналы : 6 каналов
Channel layout : C L R Ls Rs LFE
Частота : 48,0 КГц
Частота кадров : 93,750 кадра/сек (512 SPF)
Битовая глубина : 24 бит
Метод сжатия : Без потерь
Размер потока : 2,88 Гбайт (5%)
Заголовок : Ю. Немахов
Язык : Russian
Default : Нет
Forced : Нет

Аудио #3
Идентификатор : 4
Формат : DTS XLL
Формат/Информация : Digital Theater Systems
Коммерческое название : DTS-HD Master Audio
Идентификатор кодека : A_DTS
Продолжительность : 1 ч. 54 м.
Вид битрейта : Переменный
Битрейт : 3556 Кбит/сек
Каналы : 6 каналов
Channel layout : C L R Ls Rs LFE
Частота : 48,0 КГц
Частота кадров : 93,750 кадра/сек (512 SPF)
Битовая глубина : 24 бит
Метод сжатия : Без потерь
Размер потока : 2,84 Гбайт (5%)
Заголовок : Д. Есарев
Язык : Russian
Default : Нет
Forced : Нет

Аудио #4
Идентификатор : 5
Формат : DTS XLL
Формат/Информация : Digital Theater Systems
Коммерческое название : DTS-HD Master Audio
Идентификатор кодека : A_DTS
Продолжительность : 1 ч. 54 м.
Вид битрейта : Переменный
Битрейт : 3525 Кбит/сек
Каналы : 6 каналов
Channel layout : C L R Ls Rs LFE
Частота : 48,0 КГц
Частота кадров : 93,750 кадра/сек (512 SPF)
Битовая глубина : 24 бит
Метод сжатия : Без потерь
Размер потока : 2,81 Гбайт (5%)
Язык : English
Default : Нет
Forced : Нет

Текст #1
Идентификатор : 6
Формат : UTF-8
Идентификатор кодека : S_TEXT/UTF8
Идентификатор кодека/Информация : UTF-8 Plain Text
Продолжительность : 1 ч. 48 м.
Битрейт : 2 бит/сек
ElementCount : 42
Размер потока : 1,77 Кбайт (0%)
Заголовок : forced
Язык : Russian
Default : Да
Forced : Нет

Текст #2
Идентификатор : 7
Формат : UTF-8
Идентификатор кодека : S_TEXT/UTF8
Идентификатор кодека/Информация : UTF-8 Plain Text
Продолжительность : 1 ч. 53 м.
Битрейт : 110 бит/сек
ElementCount : 1297
Размер потока : 91,5 Кбайт (0%)
Заголовок : full
Язык : Russian
Default : Нет
Forced : Нет

Текст #3
Идентификатор : 8
Формат : UTF-8
Идентификатор кодека : S_TEXT/UTF8
Идентификатор кодека/Информация : UTF-8 Plain Text
Продолжительность : 1 ч. 47 м.
Битрейт : 76 бит/сек
ElementCount : 2109
Размер потока : 60,3 Кбайт (0%)
Заголовок : SDH
Язык : English
Default : Нет
Forced : Нет

Меню
00:00:00.000 : :Chapter 01
00:10:13.779 : :Chapter 02
00:19:00.931 : :Chapter 03
00:30:21.110 : :Chapter 04
00:40:02.525 : :Chapter 05
00:50:56.178 : :Chapter 06
00:59:34.362 : :Chapter 07
01:10:59.380 : :Chapter 08
01:20:08.929 : :Chapter 09
01:32:06.020 : :Chapter 10
01:39:36.220 : :Chapter 11
01:48:19.117 : :Chapter 12
pb.wtf



Скачать Парни со стволами через торрент https://d.radikal.ru/d05/1904/ae/e17ad59ec547.png Скачать фильм Парни со стволами через торрент бесплантно в хорошем качестве Описание: История о приятелях из Майами, умудрившихся выбить в Пентагоне контракт на 300 миллионов долларов на поставку ... 10 10 3
Info! Золотая раздача, скачанное не засчитывается.
Торрент: Зарегистрирован [2019-04-22 03:08] · скачан: 42 раз
Статус: √ проверено
Размер: 55.31 GB
Как cкачать? Как скачать Парни со стволами через торрент | UTorrent

28-11-2019 20:33  

Отключить всю рекламу на сайте

    Дорогой пользователь! Огромная просьба, поблагодарите релизера, оцените раздачу и оставьте свои комментарий, если Вы скачали Парни со стволами через торрент бесплатно! Внесите свою лепту в развитие PiratBit!
    Комментировать посты могут только пользователи прошедшие не сложную регистрацию
    Показать сообщения:    

    Парни со стволами через торрент
    Скачать бесплатно Парни со стволами
    Парни со стволами скачать торрент
    Парни со стволами смотреть онлайн
    Cкачать фильм Парни со стволами бесплатно
    Парни со стволами скачать торрент в хорошем качестве
    Парни со стволами смотреть онлайн бесплатно в хорошем качестве


    Вы не можете начинать темы
    Вы не можете отвечать на сообщения
    Вы не можете редактировать свои сообщения
    Вы не можете удалять свои сообщения
    Вы не можете голосовать в опросах
    Вы не можете прикреплять файлы к сообщениям
    Вы можете скачивать файлы