Ссылка на приватное зеркало всего за 1$. Внимание количество ограничено!!!

iTunes

1+1

iTunes

мы

WEB-DL

1

iTunes

Чернобыль

iTunes

Ральф против интернета

Лицензия

ПШазам

Лицензия

Оно 2

Лицензия

30
pack

Вам бонус

ВАЖНО

!!Акция!!

Alien_RageХит недели

RePack

Resident Evil 21

ИГРА 18+

pack

RePack

jed

!!Акция!!

Alien_Rage

RePack

fifa19

RePack

Assassins Creed: Odyssey

RePack

NEED FOR SPEED™ PAYBACK

3 сезон

9 сезон

Бесстыжие 9 сезон

Все сериалы

все сериалы на PB.wtf

RePack

FAR CRY 5
Ребята, катастрофически не хватает 1900р. для оплаты серверов за Октябрь (всвязи с блокировками трафик упал в 3 раза), 1-2р., выручайте.
  

Холмс & Ватсон / Holmes & Watson (Этан Коэн) [2018, комедия, криминал, детектив, приключения, BDRip-AVC] DUB [Лицензия] pb.wtf

Холмс & Ватсон через торрент pb.wtf

Раздают: 2 [ 9 KB/s ]
Размер: 1.49 GB | Добавлен: 7 мес. назад | Торрент скачан:288 раз
Скачать  

22-04-2019 03:17 Холмс & Ватсон Скачать торрент  

Холмс & Ватсон / Holmes & Watson Год выпуска: 2018
Страна: США
Жанр: комедия, криминал, детектив, приключения
Продолжительность: 01:29:55
Перевод: Дублированный | Лицензия
Субтитры: Русские

Режиссер: Этан Коэн

rating

В ролях:

Рэйф Файнс, Джон Си Райли, Келли Макдоналд, Уилл Феррелл, Лорен Лапкус, Ребекка Холл, Стив Куган, Ноа Джуп, Хью Лори, Пэм Феррис

Описание:

История о частном сыщике Шерлоке Холмсе и его напарнике докторе Ватсоне. Эксцентричный дуэт берется за запутанное расследование, наживая врагов со всего света.

Качество: BDRip-AVC
Формат: MKV

Видео: MPEG-4 AVC, 1914 Kбит/с, 1024x426, 23.976 кадр/с
Аудио: Русский (AC3, 6 ch, 448 Кбит/с)
скриншот  скриншот  скриншот  скриншот  скриншот  

Общее
Уникальный идентификатор : 176742544514885460394234313643298794327 (0x84F7603A8363B77884EE9A9B6F422B57)
Полное имя : D:ЗагрузкиHolmes.And.Watson.2018.x264.BDRip.(AVC).OlLanDGroup.mkv
Формат : Matroska
Версия формата : Version 4 / Version 2
Размер файла : 1,49 Гбайт
Продолжительность : 1 ч. 29 м.
Общий поток : 2368 Кбит/сек
Название фильма : Холмс & Ватсон.2018.Rip by: ollan
Дата кодирования : UTC 2019-04-21 13:19:24
Программа кодирования : mkvmerge v6.5.0 ('Isn't she lovely') built on Oct 20 2013 12:50:05
Библиотека кодирования : libebml v1.3.0 + libmatroska v1.4.1
Обложка : Yes
Attachments : Cover - Holmes.And.Watson.png

Видео
Идентификатор : 1
Формат : AVC
Формат/Информация : Advanced Video Codec
Профиль формата : High@L4.1
Настройки формата : CABAC / 10 Ref Frames
Параметр CABAC формата : Да
Параметр ReFrames формата : 10 кадров
Идентификатор кодека : V_MPEG4/ISO/AVC
Продолжительность : 1 ч. 29 м.
Битрейт : 1914 Кбит/сек
Ширина : 1024 пикселя
Высота : 426 пикселей
Соотношение сторон : 2,40:1
Режим частоты кадров : Постоянный
Частота кадров : 23,976 (24000/1001) кадра/сек
Цветовое пространство : YUV
Субдискретизация насыщенности : 4:2:0
Битовая глубина : 8 бит
Тип развёртки : Прогрессивная
Бит/(Пиксели*Кадры) : 0.183
Размер потока : 1,18 Гбайт (79%)
Библиотека кодирования : x264 core 146 r2538 121396c
Настройки программы : cabac=1 / ref=10 / deblock=1:-2:-3 / analyse=0x3:0x133 / me=umh / subme=11 / psy=1 / psy_rd=0.90:0.10 / mixed_ref=1 / me_range=64 / chroma_me=1 / trellis=2 / 8x8dct=1 / cqm=0 / deadzone=21,11 / fast_pskip=0 / chroma_qp_offset=-3 / threads=12 / lookahead_threads=3 / sliced_threads=0 / nr=0 / decimate=0 / interlaced=0 / bluray_compat=0 / constrained_intra=0 / bframes=10 / b_pyramid=2 / b_adapt=2 / b_bias=0 / direct=3 / weightb=1 / open_gop=0 / weightp=2 / keyint=240 / keyint_min=23 / scenecut=40 / intra_refresh=0 / rc_lookahead=40 / rc=2pass / mbtree=0 / bitrate=1914 / ratetol=1.0 / qcomp=0.60 / qpmin=0 / qpmax=69 / qpstep=4 / cplxblur=20.0 / qblur=0.5 / vbv_maxrate=50000 / vbv_bufsize=62500 / nal_hrd=none / filler=0 / ip_ratio=1.40 / pb_ratio=1.30 / aq=1:1.00
Язык : English
Default : Да
Forced : Нет

Аудио
Идентификатор : 2
Формат : AC-3
Формат/Информация : Audio Coding 3
Идентификатор кодека : A_AC3
Продолжительность : 1 ч. 29 м.
Вид битрейта : Постоянный
Битрейт : 448 Кбит/сек
Каналы : 6 каналов
Расположение каналов : Front: L C R, Side: L R, LFE
Частота : 48,0 КГц
Частота кадров : 31,250 кадров/сек (1536 SPF)
Битовая глубина : 16 бит
Метод сжатия : С потерями
Размер потока : 288 Мбайт (19%)
Заголовок : Лицензия
Язык : Russian
Service kind : Complete Main
Default : Да
Forced : Нет

Текст #1
Идентификатор : 3
Формат : UTF-8
Идентификатор кодека : S_TEXT/UTF8
Идентификатор кодека/Информация : UTF-8 Plain Text
Заголовок : Forced
Язык : Russian
Default : Да
Forced : Нет

Текст #2
Идентификатор : 4
Формат : UTF-8
Идентификатор кодека : S_TEXT/UTF8
Идентификатор кодека/Информация : UTF-8 Plain Text
Заголовок : Full
Язык : Russian
Default : Нет
Forced : Нет

Меню
00:00:00.000 : en:Chapter 01
00:03:19.199 : en:Chapter 02
00:08:35.473 : en:Chapter 03
00:15:47.154 : en:Chapter 04
00:19:52.482 : en:Chapter 05
00:24:59.706 : en:Chapter 06
00:33:06.067 : en:Chapter 07
00:38:11.080 : en:Chapter 08
00:42:55.322 : en:Chapter 09
00:51:08.231 : en:Chapter 10
00:58:25.627 : en:Chapter 11
01:01:14.879 : en:Chapter 12
01:07:44.602 : en:Chapter 13
01:11:27.950 : en:Chapter 14
01:18:00.300 : en:Chapter 15
01:21:33.805 : en:Chapter 16

pb.wtf



Скачать Холмс & Ватсон через торрент http://b.radikal.ru/b31/1904/89/27004fae87d6.png Скачать фильм Холмс & Ватсон через торрент бесплантно в хорошем качестве Описание: История о частном сыщике Шерлоке Холмсе и его напарнике докторе Ватсоне. Эксцентричный дуэт берется за запутанное расследование, ... 8.9 10 7
Торрент: Зарегистрирован [2019-04-22 03:17] · скачан: 288 раз
Статус: √ проверено
Размер: 1.49 GB
Как cкачать? Как скачать Холмс & Ватсон через торрент | qTorrent

28-11-2019 20:33  

Отключить всю рекламу на сайте

22-04-2019 05:30 Холмс & Ватсон Скачать торрент  

самый дебильный фильм америкосов который я смотрел)))))мне интересно что режиссер в этот момент курил когда это снимал))))pb.wtf



    Дорогой пользователь! Огромная просьба, поблагодарите релизера, оцените раздачу и оставьте свои комментарий, если Вы скачали Холмс & Ватсон через торрент бесплатно! Внесите свою лепту в развитие PiratBit!
    Комментировать посты могут только пользователи прошедшие не сложную регистрацию
    Показать сообщения:    

    Холмс & Ватсон через торрент
    Скачать бесплатно Холмс & Ватсон
    Холмс & Ватсон скачать торрент
    Холмс & Ватсон смотреть онлайн
    Cкачать фильм Холмс & Ватсон бесплатно
    Холмс & Ватсон скачать торрент в хорошем качестве
    Холмс & Ватсон смотреть онлайн бесплатно в хорошем качестве


    Вы не можете начинать темы
    Вы не можете отвечать на сообщения
    Вы не можете редактировать свои сообщения
    Вы не можете удалять свои сообщения
    Вы не можете голосовать в опросах
    Вы не можете прикреплять файлы к сообщениям
    Вы можете скачивать файлы