Достать ножи: Стеклянная луковица

MVO

Добыча

Дубляж

Уэнсдэй

1 сезон

Тор

Дубляж

13 клиническая

1 сезон

Жестокая ночь

MVO

Одни из нас

1 сезон

Deluxe

pack

Рекомендуем

30

Пиратка

ВАЖНО

ВАЖНО

Ghostwire

Пиратка

jed

RePack

nioh2

RePack

RDR2

RePack

NEED FOR SPEED™ PAYBACK

RePack

скачать торрент

Кинопоиск HD

Острые козырьки 6 сезон

6 сезон

FAR CRY 6

RePack

скачать торрент

Лицензия

скачать торрент

MVO

1

1 сезон

скачать торрент

1 сезон

скачать торрент

Лицензия

  

Игра престолов / Game of Thrones / Сезон: 8 / Серии: 1-6 из 6 (Алан Тейлор, Даниэль Минахан, Дэвид Наттер) [2019, Фэнтези, Триллер, WEB-DLRip] Дубляж [Amedia / Кравец]

Игра престолов через торрент pb.wtf

Раздают: 2 [ 150 KB/s ]
Размер: 8.46 GB | Добавлен: 3 года 8 мес. назад | Торрент скачан:281 раз
Смотреть онлайн | Скачать | Поддержите нас   

22-04-2019 04:33 Игра престолов Скачать торрент  

═╬ Игра престолов / Game of Thrones ╬═ =Год выпуска: 2019
Страна: США, Великобритания
Жанр: фэнтези, драма, мелодрама, приключения
Продолжительность: 00:55:00
Перевод: Профессиональный (дублированный) | студия Кравец Рекордз по заказу Amedia
Субтитры: Русские (Forced, Full), английские (SDH)

Режиссёр: Алан Тейлор, Даниэль Минахан, Дэвид Наттер, Брайан Кирк, Тимоти Ван Паттен, Дэвид Петрарка

В ролях:

Питер Динклэйдж, Николай Костер-Вальдау, Лина Хиди, Эмилия Кларк, Кит Харингтон, Эйдан Гиллен, Софи Тёрнер, Мэйси Уильямс, Альфи Аллен, Айзек Хэмпстед-Райт, Рори Макканн, Лиам Каннингем, Джон Брэдли, Натали Дормер, Кэрис ван Хаутен, Джером Флинн, Конлет Хилл, Кристофер Хивью, Ханна Мюррей, Гвендолин Кристи, Иван Реон, Индира Варма, Михиль Хёйсман, Натали Эммануэль, Том Влашиха, Дин-Чарльз Чэпмен, Майкл Макэлхаттон, Джонатан Прайс, Иэн Глен и др.

Описание:

«Игра престолов» новый сериал HBO, основанный на бестселлерах Джорджа Р.Р. Мартина. В мире, где лето и зимы длятся десятилетиями, на кону корона Вестероса. Предательство, похоть, интриги и сверхъестественные силы сотрясают все четыре стороны Королевства — от плетущего интриги юга, диких восточных земель, до замерзшего севера и древней Стены, что защищает королевство от тьмы за нею. Короли и королевы, рыцари и мятежники, лжецы и благородные люди борются за Влacть в кровавом сражении за Железный Трон.

семпл rating


Качество: WEB-DLRip
Контейнер: AVI

Видео: XviD, 720x400, 23,976 fps, ~ 1999 kbps
Аудио 1: 48 kHz, AC3 6 ch, ~384 kbps | Rus
Аудио 2: 48 kHz, AC3 6 ch, ~384 kbps | Eng
скриншот  скриншот  скриншот  скриншот  скриншот  

Format : AVI
Format/Info : Audio Video Interleave
File size : 1.08 GiB
Duration : 55mn 45s
Overall bit rate : 2 782 Kbps
Movie name : Игра престолов 1х01: Винтерфелл
Director : Бёдвар (WEB-DLRip 400p)
Writing application : VirtualDubModRus 1.5.10.2 (build 2542/release)
Comment : 22.04.2019

Video
ID : 0
Format : MPEG-4 Visual
Format profile : Advanced [email protected]
Format settings, BVOP : 1
Format settings, QPel : No
Format settings, GMC : No warppoints
Format settings, Matrix : Default (MPEG)
Codec ID : XVID
Codec ID/Hint : XviD
Duration : 55mn 45s
Bit rate : 2 000 Kbps
Width : 720 pixels
Height : 400 pixels
Display aspect ratio : 16:9
Frame rate : 23.976 (24000/1001) fps
Color space : YUV
Chroma subsampling : 4:2:0
Bit depth : 8 bits
Scan type : Progressive
Compression mode : Lossy
Bits/(Pixel*Frame) : 0.290
Stream size : 798 MiB (72%)
Writing library : XviD 67

Audio #1
ID : 1
Format : AC-3
Format/Info : Audio Coding 3
Mode extension : CM (complete main)
Format settings, Endianness : Big
Codec ID : 2000
Duration : 55mn 45s
Bit rate mode : Constant
Bit rate : 384 Kbps
Channel(s) : 6 channels
Channel positions : Front: L C R, Side: L R, LFE
Sampling rate : 48.0 KHz
Frame rate : 31.250 fps (1536 spf)
Compression mode : Lossy
Stream size : 153 MiB (14%)
Alignment : Split accross interleaves
Interleave, duration : 42 ms (1.00 video frame)
Interleave, preload duratio : 500 ms

Audio #2
ID : 2
Format : AC-3
Format/Info : Audio Coding 3
Mode extension : CM (complete main)
Format settings, Endianness : Big
Codec ID : 2000
Duration : 55mn 45s
Bit rate mode : Constant
Bit rate : 384 Kbps
Channel(s) : 6 channels
Channel positions : Front: L C R, Side: L R, LFE
Sampling rate : 48.0 KHz
Frame rate : 31.250 fps (1536 spf)
Compression mode : Lossy
Stream size : 153 MiB (14%)
Alignment : Split accross interleaves
Interleave, duration : 42 ms (1.00 video frame)
Interleave, preload duratio : 500 ms

Когда раздача ведётся путём добавления новых серий, при каждом добавлении создётся новый торрент. Чтобы начать докачку новой серии, пользователям необходимо сделать следующее:
(1) остановить скачивание,
(2) удалить старый торрент у себя из клиента (старые серии удалять не надо),
(3) скачать новый торрент и запустить его у себя в клиенте вместо старого, при этом указать клиенту путь в старую папку, куда и должно происходить скачивание новых серий.
Ваш клиент при этом должен произвести хеширование (проверку) старой папки (если не производит сам - помогите ему сделать это), и будет докачивать только те серии, которых у вас ещё нет. Старые серии при этом не удаляются, а продолжают раздаваться!
Eсли вы уже удалили старые серии, то предотвратить повторную закачку старых серий можно, отжав галочку в соответсвующих местах при запуске нового торрента. По возможности, желательно не удалять старые серии как можно дольше, чтобы релизёр не столько продолжал раздавать старые серии, а смог сконцентрироваться на новых.




Скачать Игра престолов через торрент https://www.thetvdb.com/banners/graphical/5c8c227dbd218.jpg Скачать, смотреть онлайн Игра престолов бесплантно в хорошем качестве Описание: «Игра престолов» новый сериал HBO, основанный на бестселлерах Джорджа Р.Р. Мартина. В мире, где лето и зимы длятся десятилетиями, ... 9.4 10 11
Info! Золотая раздача, скачанное не засчитывается.
Торрент: Зарегистрирован [2019-05-29 20:17] · скачан: 281 раз
Статус: √ проверено
Размер: 8.46 GB
Как cкачать? Как скачать Игра престолов через торрент | UTorrent

% Раздел Тема Автор DL S | L
Игра престолов [ 109.58 GB ] Игра престолов / Game of Thrones / Сезон: 1-8 из 8 / Серии: 1-73 из 73 | DUB | DLRip 1080p sheker187 Скачать
2 | 9
Игра престолов [ 322.59 GB ] Игра престолов / Game of Thrones / Сезон: 1-8 из 8 / Серии: 1-73 из 73 | LostFilm | DLRip 1080p sheker187 Скачать
1 | 2
Игра престолов [ 297.23 GB ] Игра престолов / Game of Thrones / Сезон: 1-7 из 7 / Серии: 1-67 из 67 | LostFilm | 1080p sheker187 Скачать
2 | 0
Игра престолов [ 7.26 GB ] Игра Престолов / Game of Thrones / Сезон: 8 / Серии: 1-6 из 6 | Лицензия | BDRip Twi7ter Скачать
13 | 2
Игра престолов [ 25.89 GB ] Игра престолов / Game of Thrones / Сезон: 8 / Серии: 1-6 из 6 | Amedia | 1080p bober100 Скачать
1 | 0
Игра престолов [ 13.35 GB ] Игра престолов / Game of Thrones / Сезон: 8 / Серии: 1-6 из 6 | Amedia 5.1 | 720p bober100 Скачать
1 | 0
Игра престолов [ 7.41 GB ] Игра Престолов / Game of Thrones / Сезон: 8 / Серии: 1-6 из 6 | Дубляж - | DLRip Twi7ter Скачать
2 | 0

28-11-2019 20:33  


Отключить вcю реклaмy на сайте, в т.ч. и в плеере онлайн просмотра!

    Дорогой пользователь! Огромная просьба, поблагодарите релизера, оцените раздачу и оставьте свои комментарий, если Вы скачали Игра престолов через торрент бесплатно!!
    Комментировать посты могут только пользователи прошедшие не сложную регистрацию
    Показать сообщения:    


    Игра престолов через торрент
    Скачать бесплатно Игра престолов
    Игра престолов скачать торрент
    Игра престолов смотреть онлайн
    Cкачать фильм Игра престолов бесплатно
    Игра престолов скачать торрент в хорошем качестве
    Игра престолов смотреть онлайн бесплатно в хорошем качестве
    Вы не можете начинать темы
    Вы не можете отвечать на сообщения
    Вы не можете редактировать свои сообщения
    Вы не можете удалять свои сообщения
    Вы не можете голосовать в опросах
    Вы не можете прикреплять файлы к сообщениям
    Вы можете скачивать файлы
    Игра престолов / Game of Thrones / Сезон: 8 / Серии: 1-6 из 6 [2019, Фэнтези, Триллер, WEB-DLRip] Дубляж [Amedia / Кравец] смотреть онлайн, скачать торрент picoco.icu