Ссылка на приватное зеркало нашего сайта всего за 1$. Внимание количество ограничено!!!

2 сезон

iTunes

1 сезон

1

2 сезон

2 сезон

iTunes

1 сезон

RePack

30

Новинка

ВАЖНО

ИГРА 18+

pack

RePack

MK11
pack

Забери бонус

RePack

jed

!!Акция!!

Alien_Rage

RePack

fifa19

RePack

Assassins Creed: Odyssey

RePack

NEED FOR SPEED™ PAYBACK

4 сезон

9 сезон

Бесстыжие 9 сезон

Все сериалы

все сериалы на PB.wtf

RePack

FAR CRY 5
  

Странный порок госпожи Уорд / Lo strano vizio della Signora Wardh (Серджо Мартино) [1971, ужасы, триллер, криминал, детектив, BDRip 1080p by msltel] VO pb.wtf

Странный порок госпожи Уорд через торрент pb.wtf

Размер: 9.38 GB | Добавлен: 1 год 7 мес. назад | Торрент скачан:4 раза
Скачать  

22-04-2019 06:49 Странный порок госпожи Уорд Скачать торрент  

Название: Странный порок госпожи Уорд
Оригинальное название: Lo strano vizio della Signora Wardh
Год выпуска: 1971
Страна: Италия, Испания, Австрия
Жанр: ужасы, триллер, криминал, детектив
Продолжительность: 01:40:06
Перевод: закадровый одноголосый

Режиссер: Серджо Мартино
В ролях: Джордж Хилтон, Эдвиж Фенек, Кончита Айрольди, Мануэль Хиль, Карло Алигьеро, Иван Рассимов, Альберто де Мендоса, Бруно Кораццари, Марелла Корби, Мигель Дел Кастилло

О фильме: Джули Уорд возвращается со своим мужем-дипломатом в родную Вену. В это время неизвестный терроризирует город: молодые и красивые женщины становятся жертвами убийцы с бритвой. Джули начинает подозревать своего экс-бойфренда Жана, у которого были садисткие наклонности: в сексуальных играх он любил избивать и резать её. В это время Жан как раз появляется в городе с намерением вернуть Джули. Также за госпожой Уорд приударяет красавчик Джордж, кузен близкой подруги. Среди всех её мужчин возникают очень напряженные отношения. А Джули придётся использовать весь свой ум, чтобы понять, кто же убийца, ведь он всё ближе и ближе...



Качество: BDRip 1080p
Формат: MKV
Видео: MPEG-4 AVC, 13 Mбит/с, 1920x816
Аудио 1: русский, AC3, 192 kbps, 2 ch, 48 kHz [закадровый одноголосый, VHS]
Аудио 2: итальянский, AC3, 192 kbps, 2 ch, 48 kHz [оригинал]
Субтитры: английские
Главы/чаптеры
Общее
Уникальный идентификатор : 226718491597946710947159704720247458013 (0xAA9064A8326004C09293968F2FF988DD)
Полное имя : D:\Video\Странный порок госпожи Уорд.1971.BDRip 1080p by msltel.mkv
Формат : Matroska
Версия формата : Version 4
Размер файла : 9,38 Гбайт
Продолжительность : 1 ч. 40 м.
Общий поток : 13,4 Мбит/сек
Название фильма : Rip by msltel
Дата кодирования : UTC 2019-04-22 02:04:41
Программа кодирования : mkvmerge v8.2.0 ('World of Adventure') 64bit
Библиотека кодирования : libebml v1.3.1 + libmatroska v1.4.2

Видео
Идентификатор : 1
Формат : AVC
Формат/Информация : Advanced Video Codec
Профиль формата : High@L4.1
Настройки формата : CABAC / 4 Ref Frames
Параметр CABAC формата : Да
Параметр RefFrames формата : 4 кадра
Идентификатор кодека : V_MPEG4/ISO/AVC
Продолжительность : 1 ч. 40 м.
Битрейт : 13,0 Мбит/сек
Ширина : 1920 пикселей
Высота : 816 пикселей
Соотношение сторон : 2,35:1
Режим частоты кадров : Постоянный
Частота кадров : 24,000 кадра/сек
Цветовое пространство : YUV
Субдискретизация насыщенности : 4:2:0
Битовая глубина : 8 бит
Тип развёртки : Прогрессивная
Бит/(Пиксели*Кадры) : 0.347
Размер потока : 9,11 Гбайт (97%)
Библиотека кодирования : x264 core 157 r2935 545de2f
Настройки программы : cabac=1 / ref=4 / deblock=1:-2:-2 / analyse=0x3:0x113 / me=umh / subme=11 / psy=1 / psy_rd=1.00:0.15 / mixed_ref=1 / me_range=32 / chroma_me=1 / trellis=2 / 8x8dct=1 / cqm=0 / deadzone=21,11 / fast_pskip=0 / chroma_qp_offset=-3 / threads=6 / lookahead_threads=1 / sliced_threads=0 / nr=0 / decimate=1 / interlaced=0 / bluray_compat=0 / constrained_intra=0 / bframes=12 / b_pyramid=2 / b_adapt=2 / b_bias=0 / direct=1 / weightb=1 / open_gop=0 / weightp=2 / keyint=230 / keyint_min=23 / scenecut=40 / intra_refresh=0 / rc_lookahead=40 / rc=crf / mbtree=1 / crf=20.0 / qcomp=0.60 / qpmin=0 / qpmax=69 / qpstep=4 / vbv_maxrate=50000 / vbv_bufsize=62500 / crf_max=0.0 / nal_hrd=none / filler=0 / ip_ratio=1.40 / aq=1:1.00
Язык : Italian
Default : Да
Forced : Нет

Аудио #1
Идентификатор : 2
Формат : AC-3
Формат/Информация : Audio Coding 3
Коммерческое название : Dolby Digital
Идентификатор кодека : A_AC3
Продолжительность : 1 ч. 40 м.
Вид битрейта : Постоянный
Битрейт : 192 Кбит/сек
Каналы : 2 канала
Channel layout : L R
Частота : 48,0 КГц
Частота кадров : 31,250 кадров/сек (1536 SPF)
Битовая глубина : 16 бит
Метод сжатия : С потерями
Размер потока : 137 Мбайт (1%)
Заголовок : VO VHS
Язык : Russian
ServiceKind/String : Complete Main
Default : Да
Forced : Нет

Аудио #2
Идентификатор : 3
Формат : AC-3
Формат/Информация : Audio Coding 3
Коммерческое название : Dolby Digital
Идентификатор кодека : A_AC3
Продолжительность : 1 ч. 40 м.
Вид битрейта : Постоянный
Битрейт : 192 Кбит/сек
Каналы : 2 канала
Channel layout : L R
Частота : 48,0 КГц
Частота кадров : 31,250 кадров/сек (1536 SPF)
Битовая глубина : 16 бит
Метод сжатия : С потерями
Размер потока : 137 Мбайт (1%)
Заголовок : original
Язык : Italian
ServiceKind/String : Complete Main
Default : Нет
Forced : Нет

Текст
Идентификатор : 4
Формат : UTF-8
Идентификатор кодека : S_TEXT/UTF8
Идентификатор кодека/Информация : UTF-8 Plain Text
Продолжительность : 1 ч. 38 м.
Битрейт : 32 бит/сек
ElementCount : 801
Размер потока : 23,5 Кбайт (0%)
Заголовок : английские
Язык : English
Default : Нет
Forced : Нет

Меню
00:00:00.000 : en:Chapter 1
00:14:50.916 : en:Chapter 2
00:39:05.000 : en:Chapter 3
00:57:18.583 : en:Chapter 4
01:14:56.708 : en:Chapter 5
01:30:25.708 : en:Chapter 6
01:39:03.666 : en:Chapter 7
pb.wtf



Скачать Странный порок госпожи Уорд через торрент https://d.radikal.ru/d03/1904/14/5b6fcee6dc3f.jpg Скачать фильм Странный порок госпожи Уорд через торрент бесплантно в хорошем качестве О фильме: Джули Уорд возвращается со своим мужем-дипломатом в родную Вену. В это время неизвестный терроризирует город: молодые и красивые ... 10 10 1
Info! Золотая раздача, скачанное не засчитывается.
Торрент: Зарегистрирован [2019-04-22 06:49] · скачан: 4 раз
Статус: √ проверено
Размер: 9.38 GB
Как cкачать? Как скачать Странный порок госпожи Уорд через торрент | qTorrent

% Раздел Тема Автор DL S | L
Фильмы [HD 720p, 1080p] (Звук Cam, VO, DVO) [ 3.7 GB ] Странный порок госпожи Уорд / Lo strano vizio della Signora Wardh [1971 BDRip 720p by msltel] VO msltel Скачать
1 | 0

28-11-2019 20:33  

Отключить всю рекламу на сайте

    Дорогой пользователь! Огромная просьба, поблагодарите релизера, оцените раздачу и оставьте свои комментарий, если Вы скачали Странный порок госпожи Уорд через торрент бесплатно! Внесите свою лепту в развитие PiratBit!
    Комментировать посты могут только пользователи прошедшие не сложную регистрацию
    Показать сообщения:    

    Странный порок госпожи Уорд через торрент
    Скачать бесплатно Странный порок госпожи Уорд
    Странный порок госпожи Уорд скачать торрент
    Странный порок госпожи Уорд смотреть онлайн
    Cкачать фильм Странный порок госпожи Уорд бесплатно
    Странный порок госпожи Уорд скачать торрент в хорошем качестве
    Странный порок госпожи Уорд смотреть онлайн бесплатно в хорошем качестве


    Вы не можете начинать темы
    Вы не можете отвечать на сообщения
    Вы не можете редактировать свои сообщения
    Вы не можете удалять свои сообщения
    Вы не можете голосовать в опросах
    Вы не можете прикреплять файлы к сообщениям
    Вы можете скачивать файлы