Достать ножи: Стеклянная луковица

MVO

Добыча

Дубляж

Уэнсдэй

1 сезон

Тор

Дубляж

13 клиническая

1 сезон

Жестокая ночь

MVO

Одни из нас

1 сезон

Deluxe

pack

Рекомендуем

30

Пиратка

ВАЖНО

ВАЖНО

Ghostwire

Пиратка

jed

RePack

nioh2

RePack

RDR2

RePack

NEED FOR SPEED™ PAYBACK

RePack

скачать торрент

Кинопоиск HD

Острые козырьки 6 сезон

6 сезон

FAR CRY 6

RePack

скачать торрент

Лицензия

скачать торрент

MVO

1

1 сезон

скачать торрент

1 сезон

скачать торрент

Лицензия

  

Игра престолов / Game of Thrones / Сезон: 8 / Серии: 1-6 из 6 (Алан Тейлор, Даниэль Минахан, Дэвид Наттер) [2019, Фэнтези, Триллер, WEB-DL 720p] Дубляж [Кравец]

Игра престолов через торрент pb.wtf

Размер: 13.12 GB | Добавлен: 3 года 8 мес. назад | Торрент скачан:112 раз
Смотреть онлайн | Скачать | Поддержите нас   

22-04-2019 08:45 Игра престолов Скачать торрент  

═╬ Игра престолов / Game of Thrones ╬═ =Год выпуска: 2019
Страна: США, Великобритания
Жанр: фэнтези, драма, мелодрама, приключения
Продолжительность: 00:55:00
Перевод: Дублированный | студия Кравец Рекордз по заказу Amedia
Субтитры: Русские, английские

Режиссёр: Алан Тейлор, Даниэль Минахан, Дэвид Наттер, Брайан Кирк, Тимоти Ван Паттен, Дэвид Петрарка

В ролях:

Питер Динклэйдж, Николай Костер-Вальдау, Лина Хиди, Эмилия Кларк, Кит Харингтон, Эйдан Гиллен, Софи Тёрнер, Мэйси Уильямс, Альфи Аллен, Айзек Хэмпстед-Райт, Рори Макканн, Лиам Каннингем, Джон Брэдли, Натали Дормер, Кэрис ван Хаутен, Джером Флинн, Конлет Хилл, Кристофер Хивью, Ханна Мюррей, Гвендолин Кристи, Иван Реон, Индира Варма, Михиль Хёйсман, Натали Эммануэль, Том Влашиха, Дин-Чарльз Чэпмен, Майкл Макэлхаттон, Джонатан Прайс, Иэн Глен и др.

Описание:

«Игра престолов» новый сериал HBO, основанный на бестселлерах Джорджа Р.Р. Мартина. В мире, где лето и зимы длятся десятилетиями, на кону корона Вестероса. Предательство, похоть, интриги и сверхъестественные силы сотрясают все четыре стороны Королевства — от плетущего интриги юга, диких восточных земель, до замерзшего севера и древней Стены, что защищает королевство от тьмы за нею. Короли и королевы, рыцари и мятежники, лжецы и благородные люди борются за Влacть в кровавом сражении за Железный Трон.




Качество: WEB-DL 720p
Контейнер: MKV

Видео: MPEG-4 AVC, 1280x720 (16:9), 23.976 fps, 3500 Kbps, 0.119 bits/pixel
Аудио 1: 48 kHz, AC3, 2 ch, 192 kbps | Rus
Аудио 2: 48 kHz, E-AC3, 6 ch, 640 kbps | Eng
скриншот  скриншот  скриншот  скриншот  скриншот  

Общее
Уникальный идентификатор : 244804110310595554030400860862078035628 (0xB82B8E80FBA9636D9E0CF3738F7CA6AC)
Полное имя : D:\Game of Thrones (Season 08) WEB-DL 720p. Кравец\Game.of.Thrones.S08E01.WEB-DL 720p. Files-x.mkv
Формат : Matroska
Версия формата : Version 4 / Version 2
Размер файла : 1,69 Гбайт
Продолжительность : 55 м. 47 с.
Общий поток : 4334 Кбит/сек
Название фильма : Винтерфелл / Winterfell
Трек/Положение : 1
Трек/Всего : 6
Описание : Arriving at Winterfell, Jon and Daenerys struggle to unite a divided North. Jon gets some big news.
Дата выпуска : UTC 2019-04-14 21:00:00
Дата кодирования : UTC 2019-04-22 07:58:19
Программа кодирования : mkvmerge v32.0.0 ('Astral Progressions') 64-bit
Библиотека кодирования : libebml v1.3.7 + libmatroska v1.5.0
Авторское право : EniaHD
Attachments : poster.Game.of.Thrones.jpg

Видео
Идентификатор : 6
Формат : AVC
Формат/Информация : Advanced Video Codec
Профиль формата : [email protected]
Параметр CABAC формата : Да
Параметр RefFrames формата : 9 кадров
Идентификатор кодека : V_MPEG4/ISO/AVC
Продолжительность : 55 м. 45 с.
Битрейт : 3500 Кбит/сек
Ширина : 1280 пикселей
Высота : 720 пикселей
Соотношение сторон : 16:9
Режим частоты кадров : Постоянный
Частота кадров : 23,976 кадра/сек
Цветовое пространство : YUV
Субдискретизация насыщенности : 4:2:0
Битовая глубина : 8 бит
Тип развёртки : Прогрессивная
Бит/(Пиксели*Кадры) : 0.158
Размер потока : 1,36 Гбайт (81%)
Библиотека кодирования : x264 core 146 r2538 121396c
Настройки программы : cabac=1 / ref=9 / deblock=1:-2:-1 / analyse=0x3:0x133 / me=umh / subme=9 / psy=1 / psy_rd=1.00:0.20 / mixed_ref=1 / me_range=32 / chroma_me=1 / trellis=2 / 8x8dct=1 / cqm=0 / deadzone=21,11 / fast_pskip=0 / chroma_qp_offset=-3 / threads=18 / lookahead_threads=3 / sliced_threads=0 / nr=0 / decimate=1 / interlaced=0 / bluray_compat=0 / constrained_intra=0 / bframes=9 / b_pyramid=2 / b_adapt=2 / b_bias=0 / direct=1 / weightb=1 / open_gop=0 / weightp=2 / keyint=250 / keyint_min=23 / scenecut=40 / intra_refresh=0 / rc=2pass / mbtree=0 / bitrate=3500 / ratetol=1.0 / qcomp=0.60 / qpmin=0 / qpmax=69 / qpstep=4 / cplxblur=20.0 / qblur=0.5 / ip_ratio=1.40 / pb_ratio=1.35 / aq=2:1.30
Язык : English
Default : Да
Forced : Нет
Цветовой диапазон : Limited
Основные цвета : BT.709
Характеристики трансфера : BT.709
Коэффициенты матрицы : BT.709

Аудио #1
Идентификатор : 1
Формат : AC-3
Формат/Информация : Audio Coding 3
Расширение режима : CM (complete main)
Параметр Endianness формата : Big
Идентификатор кодека : A_AC3
Продолжительность : 55 м. 45 с.
Вид битрейта : Постоянный
Битрейт : 192 Кбит/сек
Каналы : 2 канала
Расположение каналов : Front: L R
Частота : 48,0 КГц
Частота кадров : 31,250 кадров/сек (1536 spf)
Метод сжатия : С потерями
Размер потока : 76,6 Мбайт (4%)
Заголовок : AC3 2.0 @ 192 kbps - Дубляж, Kravec
Язык : Russian
Default : Да
Forced : Нет

Аудио #2
Идентификатор : 2
Формат : E-AC-3
Формат/Информация : Audio Coding 3
Параметр Endianness формата : Big
Идентификатор кодека : A_EAC3
Продолжительность : 55 м. 45 с.
Вид битрейта : Постоянный
Битрейт : 640 Кбит/сек
Каналы : 6 каналов
Расположение каналов : Front: L C R, Side: L R, LFE
Частота : 48,0 КГц
Частота кадров : 187,500 кадров/сек (256 spf)
Метод сжатия : С потерями
Задержка видео : 8 мс.
Размер потока : 255 Мбайт (15%)
Заголовок : E-AC3 5.1 @ 640 kbps - Original
Язык : English
Default : Нет
Forced : Нет

Текст #1
Идентификатор : 3
Формат : UTF-8
Идентификатор кодека : S_TEXT/UTF8
Идентификатор кодека/Информация : UTF-8 Plain Text
Продолжительность : 32 м. 10 с.
Битрейт : 7 бит/сек
ElementCount : 28
Размер потока : 1,70 Кбайт (0%)
Заголовок : Forced
Язык : Russian
Default : Да
Forced : Да

Текст #2
Идентификатор : 4
Формат : UTF-8
Идентификатор кодека : S_TEXT/UTF8
Идентификатор кодека/Информация : UTF-8 Plain Text
Продолжительность : 52 м. 45 с.
Битрейт : 57 бит/сек
ElementCount : 461
Размер потока : 22,2 Кбайт (0%)
Заголовок : Full
Язык : Russian
Default : Нет
Forced : Нет

Текст #3
Идентификатор : 5
Формат : UTF-8
Идентификатор кодека : S_TEXT/UTF8
Идентификатор кодека/Информация : UTF-8 Plain Text
Продолжительность : 55 м. 41 с.
Битрейт : 45 бит/сек
ElementCount : 665
Размер потока : 18,4 Кбайт (0%)
Заголовок : Full SDH
Язык : English
Default : Нет
Forced : Нет

Меню
00:00:00.000 : en:Ratings
00:00:03.944 : en:Previously On
00:01:59.944 : en:Studio Logo
00:02:05.944 : en:Opening Credits
00:03:52.944 : en:Arrival in Winterfell
00:09:46.944 : en:Fight together or die
00:12:53.944 : en:Sansa sees through the lies
00:15:36.944 : en:A tearful reunion
00:17:45.944 : en:A queen must be earned
00:22:40.944 : en:Cersei asks a favor of Bronn
00:25:25.944 : en:What is dead may never die
00:29:24.944 : en:Hold on to whatever you can
00:36:41.944 : en:A forge for dragonglass
00:39:11.944 : en:Sansa is frustrated with Jon's choice
00:41:03.944 : en:The head of House Tarly
00:44:32.944 : en:It's time for Jon to know the truth
00:48:40.944 : en:A message from the Night King
00:52:28.944 : en:An unexpected visitor
00:53:43.944 : en:End Credits
00:55:03.944 : en:Next Time
00:55:40.944 : en:Inside Game of Thrones

Когда раздача ведётся путём добавления новых серий, при каждом добавлении создётся новый торрент. Чтобы начать докачку новой серии, пользователям необходимо сделать следующее:
(1) остановить скачивание,
(2) удалить старый торрент у себя из клиента (старые серии удалять не надо),
(3) скачать новый торрент и запустить его у себя в клиенте вместо старого, при этом указать клиенту путь в старую папку, куда и должно происходить скачивание новых серий.
Ваш клиент при этом должен произвести хеширование (проверку) старой папки (если не производит сам - помогите ему сделать это), и будет докачивать только те серии, которых у вас ещё нет. Старые серии при этом не удаляются, а продолжают раздаваться!
Eсли вы уже удалили старые серии, то предотвратить повторную закачку старых серий можно, отжав галочку в соответсвующих местах при запуске нового торрента. По возможности, желательно не удалять старые серии как можно дольше, чтобы релизёр не столько продолжал раздавать старые серии, а смог сконцентрироваться на новых.




Скачать Игра престолов через торрент https://www.thetvdb.com/banners/graphical/5c8c227dbd218.jpg Скачать, смотреть онлайн Игра престолов бесплантно в хорошем качестве Описание: «Игра престолов» новый сериал HBO, основанный на бестселлерах Джорджа Р.Р. Мартина. В мире, где лето и зимы длятся десятилетиями, ... 9.8 10 8
Торрент: Зарегистрирован [2019-05-29 19:02] · скачан: 112 раз
Статус: √ проверено
Размер: 13.12 GB
Как cкачать? Как скачать Игра престолов через торрент | UTorrent

% Раздел Тема Автор DL S | L
Игра престолов [ 109.58 GB ] Игра престолов / Game of Thrones / Сезон: 1-8 из 8 / Серии: 1-73 из 73 | DUB | DLRip 1080p sheker187 Скачать
2 | 1
Игра престолов [ 322.59 GB ] Игра престолов / Game of Thrones / Сезон: 1-8 из 8 / Серии: 1-73 из 73 | LostFilm | DLRip 1080p sheker187 Скачать
2 | 1
Игра престолов [ 297.23 GB ] Игра престолов / Game of Thrones / Сезон: 1-7 из 7 / Серии: 1-67 из 67 | LostFilm | 1080p sheker187 Скачать
1 | 0
Игра престолов [ 7.26 GB ] Игра Престолов / Game of Thrones / Сезон: 8 / Серии: 1-6 из 6 | Лицензия | BDRip Twi7ter Скачать
8 | 1
Игра престолов [ 25.89 GB ] Игра престолов / Game of Thrones / Сезон: 8 / Серии: 1-6 из 6 | Amedia | 1080p bober100 Скачать
1 | 0
Игра престолов [ 13.35 GB ] Игра престолов / Game of Thrones / Сезон: 8 / Серии: 1-6 из 6 | Amedia 5.1 | 720p bober100 Скачать
1 | 0
Игра престолов [ 7.41 GB ] Игра Престолов / Game of Thrones / Сезон: 8 / Серии: 1-6 из 6 | Дубляж - | DLRip Twi7ter Скачать
1 | 0



Последний раз редактировалось: bober100 (2019-05-29 19:02), всего редактировалось 4 раз(а)

28-11-2019 20:33  


Отключить вcю реклaмy на сайте, в т.ч. и в плеере онлайн просмотра!

29-04-2019 19:42 Игра престолов Скачать торрент  

Всё смешалось в доме облонских, есть озвучка новамедиа по заказу амедиа, есть кравец по заказу той же амедиа. Случайно амедиа озвучку хихикающему доктору не заказала?
В исполнение кравец еще не слышал, вот у новамедиа с подбором голосов полное дэрьмо.



09-05-2019 17:13 Игра престолов Скачать торрент  

Народ, когда 3 серия в озвучке Кравец появится?



23-05-2019 07:47 Игра престолов Скачать торрент  

Вы объясните по человечески 5ая серия с озвучкой от Кравец выходила вообще?



23-05-2019 16:11 Игра престолов Скачать торрент  

На официальном сайте Кравец медиа,дата релиза 20 мая уже состоялась,но в сети до сих пор нет серии...
Кто знает что случилось, уже все переводы выложили,что за мистика????
Ведь это единственный лучший перевод и все об этом знают!!!



24-05-2019 02:32 Игра престолов Скачать торрент  

Для всех кто ждал перевода от Кравец,смотрите перевод амедия/новамедия в раздаче на трекере,это он и есть)))



24-05-2019 10:20 Игра престолов Скачать торрент  

Рентв амедиа,тоже самое что Кравец,вообщем там скачайте кому нравится Кравец,будете довольны, ждать надо 5_6 серия уже есть



    Дорогой пользователь! Огромная просьба, поблагодарите релизера, оцените раздачу и оставьте свои комментарий, если Вы скачали Игра престолов через торрент бесплатно!!
    Комментировать посты могут только пользователи прошедшие не сложную регистрацию
    Показать сообщения:    


    Игра престолов через торрент
    Скачать бесплатно Игра престолов
    Игра престолов скачать торрент
    Игра престолов смотреть онлайн
    Cкачать фильм Игра престолов бесплатно
    Игра престолов скачать торрент в хорошем качестве
    Игра престолов смотреть онлайн бесплатно в хорошем качестве
    Вы не можете начинать темы
    Вы не можете отвечать на сообщения
    Вы не можете редактировать свои сообщения
    Вы не можете удалять свои сообщения
    Вы не можете голосовать в опросах
    Вы не можете прикреплять файлы к сообщениям
    Вы можете скачивать файлы
    Игра престолов / Game of Thrones / Сезон: 8 / Серии: 1-6 из 6 [2019, Фэнтези, Триллер, WEB-DL 720p] Дубляж [Кравец] смотреть онлайн, скачать торрент picoco.icu